.
Авторизация | Регистрация
Хочешь лучшие торренты? Добавь свой email!
Добавить




Кес / Kes (1969) BDRip 720p | P2, A скачать торрент бесплатно

Опубликовал: Админ | Дата: 12-11-2016, 05:00 | Просмотров: 27



Детально о кино
Русское название: Кес
Русское название в мировом прокате: Kes
Создали в: 1969
Категория жанра: драма, семейный
Главный режиссер: Кен Лоуч

Актеры
Дэвид Брэдли, Фредди Флетчер, Lynne Perrie, Колин Уэлланд, Брайан Гловер, Боб Боус, Bernard Atha, Лоуренс Боулд, Джои Кэй, Тед Кэрролл, Роберт Нэйлор, Agnes Drumgoon, Джордж Спид, Десмонд Гатри, Зои Сазерленд, The 4D Jones, Eric Bolderson, Джо Миллер, Берил Кэрролл, Джули Шекспир, Билл Дин, Джеффри Бэнкс, Джон Грэйсон, Duggie Brown, Тревор Хескет, Стивен Кросслэнд, Гарри Маркам, Дэвид Гловер, Фрэнк Нортон, Мартин Харли, Лесли Стрингер

Описание фильма
История 12-летнего тинэйджера Билли Каспера, у которого нет друзей, над которым в школе издеваются сверстники и учителя. Он находит утешение, только когда обнаруживает сокола и решает заняться воспитанием ловчих птиц.

Снималось в: Великобритания
Время просмотра: 01: 51: 07
Перевод текста 1: Профессиональный (двухголосый, закадровый) НТВ+
Перевод текста 2: Авторский (одноголосый, закадровый) Сергей Кузнецов
Оригинальная аудиодорожка: английский
Субтитры подготовлены: нет
Файл
Кодек для видео: x264
Качество фильма: BDRip 720p
Информация о видео: 6566 kbps/1280x768/23.976 fps/16: 9/High Profile 4.1
Информация о звуке 1: Dolby Digital Audio Russian 192 kbps 2.0/48 kHz НТВ+
Информация о звуке 2: Dolby Digital Audio Russian 192 kbps 2.0/48 kHz Кузнецов
Информация о звуке 3: Dolby Digital Audio English 448 kbps 1.0/48 kHz
Скриншоты

MediaInfo
Общее
Уникальный идентификатор : 221890799219733980708338713653719984873 (0xA6EE9D0BB91C6DEDA429B4CB649DEAE9)
Полное имя : D: Kes_1969_720p_2xRus + Eng_CHD.mkv
Формат : Matroska
Размер файла : 5, 75 Гбайт
Продолжительность : 1 ч. 51 м.
Общий поток : 7401 Кбит/сек
Дата кодирования : UTC 2011-05-04 05: 26: 24
Программа кодирования : mkvmerge v2.1.0 (;Another Place To Fall;) built on Aug 19 2007 13: 40: 07
Библиотека кодирования : libebml v0.7.7 + libmatroska v0.8.1
Видео
Идентификатор : 1
Формат : AVC
Формат/Информация : Advanced Video Codec
Профиль формата : High@L4.1
Параметр CABAC формата : Да
Параметр ReFrames формата : 9 кадры
Параметры GOP формата : M=1, N=61
Идентификатор кодека : V_MPEG4/ISO/AVC
Продолжительность : 1 ч. 51 м.
Битрейт : 6566 Кбит/сек
Ширина : 1280 пикс.
Высота : 768 пикс.
Соотношение сторон : 1, 667
Частота кадров : 23, 976 кадр/сек
Цветовое пространство : YUV
Подвыборка цветности : 4: 2: 0
Битовая глубина : 8 бит
Тип развёртки : Прогрессивная
Бит/(Пиксели*Кадры) : 0.279
Размер потока : 4, 98 Гбайт (87%)
Заголовок : Kes.1969.BluRay.CC.720p.AC3.x264-CHD
Библиотека кодирования : x264 core 102 r1666 d058f37
Настройки программы : cabac=1/ref=9/deblock=1: -3: -3/analyse=0x3: 0x113/me=umh/subme=10/psy=1/psy_rd=1.05: 0.10/mixed_ref=1/me_range=32/chroma_me=1/trellis=2/8x8dct=1/cqm=2/deadzone=21, 11/fast_pskip=0/chroma_qp_offset=-2/threads=6/sliced_threads=0/nr=0/decimate=1/interlaced=0/constrained_intra=0/bframes=6/b_pyramid=2/b_adapt=2/b_bias=0/direct=3/weightb=1/open_gop=0/weightp=2/keyint=250/keyint_min=25/scenecut=40/intra_refresh=0/rc_lookahead=40/rc=2pass/mbtree=1/bitrate=6566/ratetol=1.0/qcomp=0.60/qpmin=10/qpmax=51/qpstep=4/cplxblur=20.0/qblur=0.5/vbv_maxrate=50000/vbv_bufsize=50000/ip_ratio=1.40/aq=1: 0.80/nal_hrd=none
Язык : English
Аудио #1
Идентификатор : 2
Формат : AC-3
Формат/Информация : Audio Coding 3
Расширение режима : CM (complete main)
Идентификатор кодека : A_AC3
Продолжительность : 1 ч. 51 м.
Вид битрейта : Постоянный
Битрейт : 192 Кбит/сек
Канал(ы) : 2 канала(ов)
Расположение каналов : Front: L R
Частота : 48, 0 КГц
Битовая глубина : 16 бит
Метод сжатия : С потерями
Размер потока : 153 Мбайт (3%)
Заголовок : НТВ+
Язык : Russian
Аудио #2
Идентификатор : 3
Формат : AC-3
Формат/Информация : Audio Coding 3
Расширение режима : CM (complete main)
Идентификатор кодека : A_AC3
Продолжительность : 1 ч. 51 м.
Вид битрейта : Постоянный
Битрейт : 192 Кбит/сек
Канал(ы) : 2 канала(ов)
Расположение каналов : Front: L R
Частота : 48, 0 КГц
Битовая глубина : 16 бит
Метод сжатия : С потерями
Размер потока : 153 Мбайт (3%)
Заголовок : Кузнецов
Язык : Russian
Аудио #3
Идентификатор : 4
Формат : AC-3
Формат/Информация : Audio Coding 3
Расширение режима : CM (complete main)
Идентификатор кодека : A_AC3
Продолжительность : 1 ч. 51 м.
Вид битрейта : Постоянный
Битрейт : 448 Кбит/сек
Канал(ы) : 1 канал
Расположение каналов : Front: C
Частота : 48, 0 КГц
Битовая глубина : 16 бит
Метод сжатия : С потерями
Размер потока : 356 Мбайт (6%)
Язык : English

Размер скачиваемого торрента: 5.75 GB (6168735829 Bytes)

Кес/Kes (1969) BDRip 720p | P2, A
загрузка...
Рейтинг →
 (голосов: 1, оценка 3/5, голосовать можно 1 раз )

Другие торренты по теме:

  • Гадкий Я: Мини-фильмы. Миньоны / Despicable Me Presents: Minion Madness / Despicable Me: Mini-Movies(2010) BDRip-AVC | P
  • Gekijouban Mahou Shoujo Madoka Magica / Девочка-волшебница Мадока (Фильмы) (2013) BDRip 1080p | AniFilm MVO скачать через торрент бесплатно
  • Gekijouban Mahou Shoujo Madoka Magica / Девочка-волшебница Мадока (Фильмы) (2013) BDRip 720p | AniFilm MVO скачать через торрент бесплатно
  • Облачно... 2: Мини-фильмы / Cloudy with a Chance of Meatballs 2: Mini-Movies (2013) BDRip от HQCLUB | Лицензия скачать через торрент бесплатно
  • Naruto Фильмы / Naruto Movies (2003-2012) BDRip | SHIZA Project
  • Миньоны: Мини-фильмы / Minions: Mini-Movie - The Competition (2015) BDRip 720p | D


    • Комментарии (0):

      Информация

      Информация

        Посетители, находящиеся в группе Гости, не могут оставлять комментарии в данной новости.

        ↓ Меню



        ↓ Опрос

        А Вы добавили сайт в закладки?
        Да
        Не


        Top 10 за месяц (Фильмы)