.
Авторизация | Регистрация
Хочешь лучшие торренты? Добавь свой email!
Добавить
» » Спортивная честь (1951) SATRip от New-Team скачать торрент бесплатно




    Спортивная честь (1951) SATRip от New-Team скачать торрент бесплатно

    Опубликовал: Админ | Дата: 11-11-2016, 05:01 | Просмотров: 62



    Снималось в: СССР
    Создали в: Мосфильм
    Категория жанра: комедия, приключения, спорт
    Создали в: 1951
    Время просмотра: 01: 40: 41
    Перевод текста: Не требуется
    Субтитры подготовлены: нет
    Оригинальная аудиодорожка: русский
    Главный режиссер: Владимир Петров

    Актеры

    Алексей Грибов, Геннадий Сергеев, Маргарита Лифанова, Лев Фричинский, Николай Крючков, В. Зотова, Вадим Синявский, Александр Дегтярь...
    Полный список актёров
    Описание:
    Рабочий уральского завода Ветлугин становится членом московской футбольной команды Турбина. Известный всей стране капитан и центральный нападающий Турбины Виталий Гринько ревностно относится к новичку и пытается опорочить простодушного футболиста. Вся команда принимает сторону новичка, критикует поведение капитана — и в игре с зарубежной командой одерживает победу. Первая роль в кино актера Олега Стриженова.



    Источник: DVB
    Качество фильма видео: SATRip
    Тип видео видео: AVI
    Информация о видео: 688x512 (4: 3), 25 fps, XviD ~ 1874 kbps avg, 0.213 bit/pixel
    Информация о звуке: 48 kHz, Dolby Digital AC3 2.0, 192 kbps
    Раздача от:
    MediaInfo

    Общее
    Полное имя : Sportivnaya.chest.1951.SATRip_New-team_by_AVP_Studio.avi
    Формат : AVI
    Формат/Информация : Audio Video Interleave
    Размер файла : 1, 46 Гбайт
    Продолжительность : 1 ч. 40 м.
    Общий поток : 2076 Кбит/сек
    Программа кодирования : VirtualDubMod 1.5.10.3 | www.virtualdub-fr.org || (build 2550/release)
    Библиотека кодирования : VirtualDubMod build 2550/release
    Видео
    Идентификатор : 0
    Формат : MPEG-4 Visual
    Профиль формата : Advanced Simple@L5
    Параметр BVOP формата : 1
    Параметр QPel формата : Нет
    Параметр GMC формата : Без точки перехода
    Параметр матрицы формата : Выборочная
    Идентификатор кодека : XVID
    Идентификатор кодека/Подсказка : XviD
    Продолжительность : 1 ч. 40 м.
    Битрейт : 1874 Кбит/сек
    Ширина : 688 пикселей
    Высота : 512 пикселей
    Соотношение сторон : 4: 3
    Частота кадров : 25, 000 кадров/сек
    Цветовое пространство : YUV
    Субдискретизация насыщенности : 4: 2: 0
    Битовая глубина : 8 бит
    Тип развёртки : Прогрессивная
    Метод сжатия : С потерями
    Бит/(Пиксели*Кадры) : 0.213
    Размер потока : 1, 32 Гбайт (90%)
    Библиотека кодирования : XviD 73
    Аудио
    Идентификатор : 1
    Формат : AC-3
    Формат/Информация : Audio Coding 3
    Расширение режима : CM (complete main)
    Параметр Endianness формата : Big
    Идентификатор кодека : 2000
    Продолжительность : 1 ч. 40 м.
    Вид битрейта : Постоянный
    Битрейт : 192 Кбит/сек
    Каналы : 2 канала
    Расположение каналов : Front: L R
    Частота : 48, 0 КГц
    Метод сжатия : С потерями
    Размер потока : 138 Мбайт (9%)
    Выравнивание : Разделение по промежуткам
    Продолжительность промежутка : 40 мс. (1, 00 видеокадр)
    Время предзагрузки промежутка : 500 мс

    Скриншоты



    Залил: AVPStudio

    Онлайн видео Спортивная честь (1951) SATRip от New


    Размер скачиваемого торрента: 1.46 GB (1567676416 Bytes)

    Спортивная честь (1951) SATRip от New-Team
    загрузка...
    Рейтинг →
     (голосов: 1, оценка 4/5, голосовать можно 1 раз )

    Другие торренты по теме:

  • Спортивная честь (1951) SATRip от New-Team
  • Спортивная честь / 1951 / РУ / IPTVRip
  • Спортивная честь (1951) SATRip-AVC от New-Team
  • Спортивная честь (1951) SATRip от New-Team


    • Комментарии (0):

      Информация

      Информация

        Посетители, находящиеся в группе Гости, не могут оставлять комментарии в данной новости.

        ↓ Меню



        ↓ Опрос

        А Вы добавили сайт в закладки?
        Да
        Не


        Top 10 за месяц (Фильмы)