.
Авторизация | Регистрация
Хочешь лучшие торренты? Добавь свой email!
Добавить
» » Идём со мной / Blackway (2015) BDRip 720p | iTunes скачать торрент бесплатно




    Идём со мной / Blackway (2015) BDRip 720p | iTunes скачать торрент бесплатно

    Опубликовал: Админ | Дата: 10-11-2016, 05:02 | Просмотров: 56



    Создали в: США
    Категория жанра: Триллер
    Главный режиссер: Даниэль Альфредсон
    Продюсер: Рик Дагдэйл, Эллен Голдсмит-Вейн, Энтони Хопкинс
    Актеры: Джулия Стайлз, Александр Людвиг, Энтони Хопкинс, Рэй Лиотта, Локлин Манро, Хэл Холбрук, Тэйлор Хиксон, Алекс Паунович, Стив Бачич, Крис Готье.

    Описание фильма

    Лиллиан возвращается в родной город после учебы и становится жертвой сексуальных домогательств со стороны человека по имени Блэквэй. Когда девушка понимает, что полицейские порядки в городе не действуют, она обращается за помощью к друзьям: бывшему леснику и его приятелю. В процессе поиска они узнают, что Лиллиан — далеко не единственная жертва преступника. Услышав имя Блэквэя, жители городка испытывают страх и отказываются помогать, избегая общения. Джулия и её помощники остаются один на один с сумасшедшим преступником…

    Релиз подготовил: K.E.N
    Время просмотра: 01: 26: 40
    Перевод текста: Дублированный(iTunes)
    Субтитры: Отсутствуют
    Качество фильма видео: BDRip 720p
    Информация о видео: AVC/H.264, 1280x534, 25 fps, ~4455 Kbps
    Информация о звуке 1: AC3, 6 ch, 384 Kbps, CBR (русский)
    Информация о звуке 2: AC3, 6 ch, 448 Kbps, CBR (английский)
    x264 log:
    x264 info: profile High, level 4.1
    x264 info: frame I: 905 Avg QP: 16.61 size: 103716 PSNR Mean Y: 46.25 U: 49.17 V: 52.72 Avg: 47.17 Global: 46.83
    x264 info: frame P: 24998 Avg QP: 19.37 size: 43662 PSNR Mean Y: 43.96 U: 49.28 V: 53.12 Avg: 45.10 Global: 44.59
    x264 info: frame B: 104097 Avg QP: 21.23 size: 16420 PSNR Mean Y: 42.52 U: 47.73 V: 52.15 Avg: 43.74 Global: 43.35
    Mediainfo:
    Формат : Matroska
    Версия формата : Version 2
    Размер файла : 3, 20 Гбайт
    Продолжительность : 1 ч. 26 м.
    Общий поток : 5287 Кбит/сек
    Дата кодирования : UTC 2016-11-07 14: 01: 52
    Программа кодирования : mkvmerge v5.3.0 (;I could have danced;) built on Feb 9 2012 10: 38: 07
    Библиотека кодирования : libebml v1.2.3 + libmatroska v1.3.0
    Attachment : Yes
    Видео
    Идентификатор : 1
    Формат : AVC
    Формат/Информация : Advanced Video Codec
    Профиль формата : High@L4.1
    Параметр CABAC формата : Да
    Параметр ReFrames формата : 12 кадров
    Идентификатор кодека : V_MPEG4/ISO/AVC
    Продолжительность : 1 ч. 26 м.
    Битрейт : 4455 Кбит/сек
    Ширина : 1280 пикселей
    Высота : 534 пикселя
    Соотношение сторон : 2, 40: 1
    Режим частоты кадров : Постоянный
    Частота кадров : 25, 000 кадров/сек
    Цветовое пространство : YUV
    Субдискретизация насыщенности : 4: 2: 0
    Битовая глубина : 8 бит
    Тип развёртки : Прогрессивная
    Бит/(Пиксели*Кадры) : 0.261
    Размер потока : 2, 63 Гбайт (82%)
    Библиотека кодирования : x264 core 146 r2538 121396c
    Настройки программы : cabac=1/ref=12/deblock=1: -3: -3/analyse=0x3: 0x133/me=umh/subme=11/psy=1/psy_rd=1.00: 0.00/mixed_ref=1/me_range=32/chroma_me=1/trellis=2/8x8dct=1/cqm=0/deadzone=21, 11/fast_pskip=0/chroma_qp_offset=-2/threads=12/lookahead_threads=2/sliced_threads=0/nr=0/decimate=0/interlaced=0/bluray_compat=0/constrained_intra=0/bframes=8/b_pyramid=2/b_adapt=2/b_bias=0/direct=3/weightb=1/open_gop=0/weightp=2/keyint=240/keyint_min=23/scenecut=40/intra_refresh=0/rc_lookahead=40/rc=2pass/mbtree=0/bitrate=4455/ratetol=1.0/qcomp=0.60/qpmin=0/qpmax=69/qpstep=4/cplxblur=20.0/qblur=0.5/vbv_maxrate=50000/vbv_bufsize=62500/nal_hrd=none/filler=0/ip_ratio=1.40/pb_ratio=1.30/aq=1: 0.70
    Язык : English
    Default : Да
    Forced : Нет
    Аудио #1
    Идентификатор : 2
    Формат : AC-3
    Формат/Информация : Audio Coding 3
    Расширение режима : CM (complete main)
    Параметр Endianness формата : Big
    Идентификатор кодека : A_AC3
    Продолжительность : 1 ч. 26 м.
    Вид битрейта : Постоянный
    Битрейт : 384 Кбит/сек
    Каналы : 6 каналов
    Расположение каналов : Front: L C R, Side: L R, LFE
    Частота : 48, 0 КГц
    Битовая глубина : 16 бит
    Метод сжатия : С потерями
    Размер потока : 238 Мбайт (7%)
    Язык : Russian
    Default : Да
    Forced : Нет
    Аудио #2
    Идентификатор : 3
    Формат : AC-3
    Формат/Информация : Audio Coding 3
    Расширение режима : CM (complete main)
    Параметр Endianness формата : Big
    Идентификатор кодека : A_AC3
    Продолжительность : 1 ч. 26 м.
    Вид битрейта : Постоянный
    Битрейт : 448 Кбит/сек
    Каналы : 6 каналов
    Расположение каналов : Front: L C R, Side: L R, LFE
    Частота : 48, 0 КГц
    Битовая глубина : 16 бит
    Метод сжатия : С потерями
    Размер потока : 278 Мбайт (8%)
    Язык : English
    Default : Нет
    Forced : Нет
    Меню
    00: 00: 00.000 : en: 00: 00: 00.000
    00: 05: 39.480 : en: 00: 05: 39.480
    00: 12: 59.120 : en: 00: 12: 59.120
    00: 19: 23.320 : en: 00: 19: 23.320
    00: 23: 57.440 : en: 00: 23: 57.440
    00: 33: 34.800 : en: 00: 33: 34.800
    00: 42: 30.960 : en: 00: 42: 30.960
    00: 51: 07.880 : en: 00: 51: 07.880
    00: 58: 02.640 : en: 00: 58: 02.640
    01: 05: 44.680 : en: 01: 05: 44.680
    01: 10: 55.280 : en: 01: 10: 55.280
    01: 19: 52.240 : en: 01: 19: 52.240

    Скриншоты:


    Онлайн видео Идём со мной


    Размер скачиваемого торрента: 3.20 GB (3436729540 Bytes)

    Идём со мной/Blackway (2015) BDRip 720p | iTunes
    загрузка...
    Рейтинг →
     (голосов: 1, оценка 3/5, голосовать можно 1 раз )

    Другие торренты по теме:

  • Идём со мной / Blackway (2015) WEB-DLRip | L
  • Идём со мной / Blackway (2015) WEB-DLRip | iTunes
  • Идём со мной / Blackway (2015) HDRip от Scarabey | iTunes


    • Комментарии (0):

      Информация

      Информация

        Посетители, находящиеся в группе Гости, не могут оставлять комментарии в данной новости.

        ↓ Меню



        ↓ Опрос

        А Вы добавили сайт в закладки?
        Да
        Не


        Top 10 за месяц (Фильмы)