.
Авторизация | Регистрация
Хочешь лучшие торренты? Добавь свой email!
Добавить
» » Гелиос / Helios (2015) HDRip-AVC от Batafurai Team и Your Dream | L2 скачать торрент бесплатно




    Гелиос / Helios (2015) HDRip-AVC от Batafurai Team и Your Dream | L2 скачать торрент бесплатно

    Опубликовал: Админ | Дата: 10-11-2016, 05:00 | Просмотров: 22



    Гелиос/Helios
    Создали в: 2016
    Снималось в: Гонконг, Южная Корея
    Категория жанра: боевик, триллер, криминал
    Время просмотра: 01: 58: 55
    Перевод текста: Любительский (двухголосый закадровый)
    Русские субтитры: есть
    Главный режиссер: Лок Мэн Люн/Lok Man Leung, Ким-Чинг Люк/Kim-Ching Luk

    Актеры
    Ли Тхэ Ран, Чхве Ши Вон, Ким Хэ Сук, Чан Чэнь, Чжи Чжин Хи, Юн Джин И, Ван Сюэ Ци, Дженис Ман, Шон Юэ, Филип Кеунг
    Описание: Известный террорист по кличке Гелиос похищает портативное взрывное устройство, планируя создать бомбу, чтобы затем продать её на чёрном рынке. Главный инспектор городской полиции Ли Янь Мин, профессор физики Чжао Чжи Рен и два эксперта по оружию, приехавших из Южной Кореи несмотря на противоречия, возникающие между ними, должны работать вместе, чтобы не допустить катастрофы. Ситуация осложняется, когда возникает риск утечки радиации, а успех операции по захвату Гелиоса зависит от готовности одного из офицеров пожертвовать собой.
    Релиз группы: и Your Dream
    Доп. информация:
    Перевод осуществляла командафансаб-группы ФантAsia
    Перевод текста: Zakuraeva
    Редакция и тайминг: Rella, Misstika
    Озвучивание : Ворони SpookyEllie
    Смотреть обязательно с форсированными субтитрами на надписи!
    Прежде чем качать видео и комментировать, скачайте сэмпл и послушайте!

    Качество фильма видео: HDRip-AVC - Сэмпл
    Исходник: Helios 2015 BluRay 720p AC3 2Audio x264-MTeam
    Тип видео видео: MKV
    Информация о видео: 720x304 (2.35: 1), 24, 000 fps, x264 ~1576 kbps avg, 0.300 bit/pixel
    Информация о звуке: 48 kHz, AC3 Dolby Digital, 3/2 (L, C, R, l, r) + LFE ch, ~448 kbps (Русский)
    Информация о звуке 2: 48 kHz, AC3 Dolby Digital, 3/2 (L, C, R, l, r) + LFE ch, ~448 kbps (Китайский)
    Тип видео субтитров: форсированный(надписи)/полныеsoftsub (ass)
    Скриншоты



    отчет MediaInfo

    Формат : Matroska
    Версия формата : Version 4/Version 2
    Размер файла : 2, 05 Гбайт
    Продолжительность : 1 ч. 58 м.
    Общий поток : 2468 Кбит/сек
    Дата кодирования : UTC 2016-11-09 18: 38: 10
    Программа кодирования : mkvmerge v8.2.0 (;World of Adventure;) 32bit
    Библиотека кодирования : libebml v1.3.1 + libmatroska v1.4.2
    Attachments : B52.ttf/Postmodern Two.ttf
    Видео
    Идентификатор : 1
    Формат : AVC
    Формат/Информация : Advanced Video Codec
    Профиль формата : High@L4.1
    Параметр CABAC формата : Да
    Параметр ReFrames формата : 10 кадров
    Идентификатор кодека : V_MPEG4/ISO/AVC
    Продолжительность : 1 ч. 58 м.
    Битрейт : 1576 Кбит/сек
    Ширина : 720 пикселей
    Высота : 304 пикселя
    Соотношение сторон : 2, 35: 1
    Режим частоты кадров : Постоянный
    Частота кадров : 24, 000 кадра/сек
    Цветовое пространство : YUV
    Субдискретизация насыщенности : 4: 2: 0
    Битовая глубина : 8 бит
    Тип развёртки : Прогрессивная
    Бит/(Пиксели*Кадры) : 0.300
    Размер потока : 1, 30 Гбайт (64%)
    Библиотека кодирования : x264 core 148 r2638 7599210
    Настройки программы : cabac=1/ref=10/deblock=1: -2: -1/analyse=0x3: 0x133/me=umh/subme=10/psy=1/psy_rd=1.00: 0.00/mixed_ref=1/me_range=24/chroma_me=1/trellis=2/8x8dct=1/cqm=0/deadzone=21, 11/fast_pskip=0/chroma_qp_offset=-2/threads=6/lookahead_threads=1/sliced_threads=0/nr=0/decimate=0/interlaced=0/bluray_compat=0/constrained_intra=0/bframes=10/b_pyramid=2/b_adapt=2/b_bias=0/direct=3/weightb=1/open_gop=1/weightp=2/keyint=240/keyint_min=24/scenecut=40/intra_refresh=0/rc_lookahead=60/rc=2pass/mbtree=0/bitrate=1576/ratetol=1.0/qcomp=0.70/qpmin=10/qpmax=51/qpstep=4/cplxblur=20.0/qblur=0.5/vbv_maxrate=62500/vbv_bufsize=78125/nal_hrd=none/filler=0/ip_ratio=1.40/pb_ratio=1.30/aq=1: 1.00
    Язык : English
    Default : Да
    Forced : Нет
    Цветовой диапазон : Limited
    Коэффициенты матрицы : BT.709
    Аудио #1
    Идентификатор : 2
    Формат : AC-3
    Формат/Информация : Audio Coding 3
    Расширение режима : CM (complete main)
    Параметр Endianness формата : Big
    Идентификатор кодека : A_AC3
    Продолжительность : 1 ч. 58 м.
    Вид битрейта : Постоянный
    Битрейт : 448 Кбит/сек
    Каналы : 6 каналов
    Расположение каналов : Front: L C R, Side: L R, LFE
    Частота : 48, 0 КГц
    Частота кадров : 31, 250 кадров/сек (1536 spf)
    Метод сжатия : С потерями
    Размер потока : 381 Мбайт (18%)
    Заголовок : Ворон и SpookyEllie
    Язык : Russian
    Default : Да
    Forced : Нет
    Аудио #2
    Идентификатор : 3
    Формат : AC-3
    Формат/Информация : Audio Coding 3
    Расширение режима : CM (complete main)
    Параметр Endianness формата : Big
    Идентификатор кодека : A_AC3
    Продолжительность : 1 ч. 58 м.
    Вид битрейта : Постоянный
    Битрейт : 448 Кбит/сек
    Каналы : 6 каналов
    Расположение каналов : Front: L C R, Side: L R, LFE
    Частота : 48, 0 КГц
    Частота кадров : 31, 250 кадров/сек (1536 spf)
    Метод сжатия : С потерями
    Размер потока : 381 Мбайт (18%)
    Заголовок : Original
    Язык : Chinese
    Default : Нет
    Forced : Нет
    Текст #1
    Идентификатор : 4
    Формат : ASS
    Идентификатор кодека : S_TEXT/ASS
    Идентификатор кодека/Информация : Advanced Sub Station Alpha
    Продолжительность : 1 ч. 51 м.
    Битрейт : 2 бит/сек
    Count of elements : 32
    Метод сжатия : Без потерь
    Размер потока : 2, 23 Кбайт (0%)
    Заголовок : форсированный(надписи)
    Язык : Russian
    Default : Да
    Forced : Да
    Текст #2
    Идентификатор : 5
    Формат : ASS
    Идентификатор кодека : S_TEXT/ASS
    Идентификатор кодека/Информация : Advanced Sub Station Alpha
    Продолжительность : 1 ч. 53 м.
    Битрейт : 97 бит/сек
    Count of elements : 995
    Метод сжатия : Без потерь
    Размер потока : 81, 0 Кбайт (0%)
    Заголовок : Перевод - Фансаб-группа ФантAsia
    Язык : Russian
    Default : Нет
    Forced : Нет

    Пример Субтитров

    Dialogue: 0, 0: 02: 55.00, 0: 02: 55.80, Default, , 0, 0, 0, , 12 тел,
    Dialogue: 0, 0: 02: 56.18, 0: 02: 57.54, Default, , 0, 0, 0, , но 13 видов ДНК.
    Dialogue: 0, 0: 02: 57.72, 0: 02: 58.78, Default, , 0, 0, 0, , Тело стюардессы не найдено.
    Dialogue: 0, 0: 03: 13.33, 0: 03: 15.80, Default, , 0, 0, 0, , Предварительная экспертиза не выявила
    Dialogue: 0, 0: 03: 16.02, 0: 03: 18.00, Default, , 0, 0, 0, , следы взрывчатки на борту.
    Dialogue: 0, 0: 03: 18.27, 0: 03: 21.18, Default, , 0, 0, 0, , А этот материал используется только для формы десантников в США.
    Dialogue: 0, 0: 03: 21.38, 0: 03: 24.51, Default, , 0, 0, 0, , Мы нашли на нёмN ДНК пропавших без вести людей.
    Dialogue: 0, 0: 03: 29.76, 0: 03: 30.42, Default, , 0, 0, 0, , Пойдёмте.
    Dialogue: 0, 0: 03: 57.89, 0: 03: 58.60, Default, , 0, 0, 0, , Где машина?
    Dialogue: 0, 0: 04: 16.22, 0: 04: 17.02, Default, , 0, 0, 0, , Уже видел.
    Dialogue: 0, 0: 04: 18.56, 0: 04: 20.16, Default, , 0, 0, 0, , Думаю, назревает что-то крупное.
    Dialogue: 0, 0: 04: 21.10, 0: 04: 22.51, Default, , 0, 0, 0, , Что ещё я должен знать?
    Dialogue: 0, 0: 04: 27.20, 0: 04: 29.09, Default, , 0, 0, 0, , Радиационный фон в норме.
    Dialogue: 0, 0: 04: 29.58, 0: 04: 32.69, Default, , 0, 0, 0, , Отправьте все данныеN в Голубой дом в Корее.
    Dialogue: 0, 0: 04: 33.31, 0: 04: 33.98, Default, , 0, 0, 0, , И ещё...
    Dialogue: 0, 0: 04: 34.91, 0: 04: 35.84, Default, , 0, 0, 0, , встреть меня в аэропорту.
    Dialogue: 0, 0: 04: 44.27, 0: 04: 45.93, Default, , 0, 0, 0, , Сяо Чжан, я собираюсь за границу.
    Dialogue: 0, 0: 04: 51.38, 0: 04: 54.87, snoski, , 0, 0, 0, , {pos(1067, 270)}Корея
    Dialogue: 0, 0: 05: 14.02, 0: 05: 17.50, Default, , 0, 0, 0, , Вас здесь 9 человек Nи я буду считать до 9.
    Dialogue: 0, 0: 05: 18.16, 0: 05: 21.04, Default, , 0, 0, 0, , Если за это время, никто так и не откроет дверь в хранилище,
    Dialogue: 0, 0: 05: 21.58, 0: 05: 23.76, Default, , 0, 0, 0, , я просто убью всех вас.
    Dialogue: 0, 0: 05: 24.31, 0: 05: 25.09, Default, , 0, 0, 0, , Один,
    Dialogue: 0, 0: 05: 25.98, 0: 05: 26.69, Default, , 0, 0, 0, , два...
    Dialogue: 0, 0: 05: 27.64, 0: 05: 29.40, Default, , 0, 0, 0, , Вы приехали не в то место,
    Dialogue: 0, 0: 05: 29.47, 0: 05: 31.07, Default, , 0, 0, 0, , настоящие сферы не в хранилище.
    Dialogue: 0, 0: 05: 35.31, 0: 05: 36.58, Default, , 0, 0, 0, , Это был неправильный ответ.
    Dialogue: 0, 0: 05: 37.02, 0: 05: 38.38, Default, , 0, 0, 0, , Теперь вас осталось семеро.
    Dialogue: 0, 0: 05: 38.87, 0: 05: 40.24, Default, , 0, 0, 0, , Я считаю до семи.
    Dialogue: 0, 0: 05: 40.80, 0: 05: 41.51, Default, , 0, 0, 0, , Один,
    Dialogue: 0, 0: 05: 42.49, 0: 05: 43.09, Default, , 0, 0, 0, , два.
    Dialogue: 0, 0: 05: 43.64, 0: 05: 45.67, Default, , 0, 0, 0, , Не убивайте меня! NЯ знаю где они.
    Dialogue: 0, 0: 06: 58.07, 0: 06: 59.13, Default, , 0, 0, 0, , Уже полчаса прошло.
    Dialogue: 0, 0: 07: 02.38, 0: 07: 04.58, Default, , 0, 0, 0, , Лейтенант Пак, Nмы не можем больше ждать.

    Субтитры выложены с разрешения фансаб-группы ФантAsia

    Онлайн видео Гелиос


    Размер скачиваемого торрента: 2.05 GB (2201681537 Bytes)

    Гелиос/Helios (2015) HDRip-AVC от Batafurai Team и Your Dream | L2
    загрузка...
    Рейтинг →
     (голосов: 1, оценка 4/5, голосовать можно 1 раз )

    Другие торренты по теме:



      Комментарии (0):

      Информация

      Информация

        Посетители, находящиеся в группе Гости, не могут оставлять комментарии в данной новости.

        ↓ Меню



        ↓ Опрос

        А Вы добавили сайт в закладки?
        Да
        Не


        Top 10 за месяц (Фильмы)