.
Авторизация | Регистрация
Хочешь лучшие торренты? Добавь свой email!
Добавить
» » Восстановление / Recovery (2016) WEB-DLRip от Portablius | L1 скачать торрент бесплатно




    Восстановление / Recovery (2016) WEB-DLRip от Portablius | L1 скачать торрент бесплатно

    Опубликовал: Админ | Дата: 6-11-2016, 05:00 | Просмотров: 32



    Детально о кино
    Русское название: Восстановление
    Русское название в мировом прокате: Recovery
    Создали в: 2016
    Категория жанра: ужасы, триллер
    Главный режиссер: Даррел Уит

    Актеры
    Кирби Блисс Блэнтон, Рэйчел ДиПилло, Джеймс Хеберт, Сэмюэл Ларсен, Алекс Шеффер, Хосе Абрил, Майкл Филиппович, Джулиана А. Морган, Sandy Valles, Malice

    Сюжет фильма
    Джесси жить не может без соцсетей и постоянно постит свои фотографии. Особенно радостно она выкладывала фотографии себя со своим новым парнем. Но вот беда — вскоре на вечеринке застукала его с другой. И только она хотела как следует устроить ему сцену, как её одёргивает незнакомая девушка. Новую подругу зовут Ким, и они с Джесси — товарищи по несчастью. Но не будут же две такие красивые девушки скучать в одиночестве и вспоминать своих бывших, поэтому подруги решают заехать в новый клуб, прихватив по дороге нового виртуального ухажёра Джесси.

    Снималось в: США
    Киностудия: Diablo Entertainment (II), EBF Productions
    Время просмотра: 01: 20: 39
    Перевод текста: Любительский (одноголосый, закадровый) Хихикающий доктор
    Субтитры: Нет
    Семпл
    Файл
    Кодек для видео: XviD
    Качество фильма: WEB-DLRip
    Информация о видео: 720x304 (2.37: 1), 23.976 fps, XviD build 73 ~1094 kbps avg, 0.21 bit/pixel
    Информация о звуке: 48 kHz, MPEG Layer 3, 2 ch, ~192.00 kbps avg
    MediaInfo
    Общее
    Полное имя : Recovery.2016.WEB-DLRip.ot.Portablius.avi
    Формат : AVI
    Формат/Информация : Audio Video Interleave
    Размер файла : 748 Мбайт
    Продолжительность : 1 ч. 20 м.
    Общий поток : 1296 Кбит/сек
    Программа кодирования : VirtualDubMod 1.5.10.3 | www.virtualdub-fr.org || (build 2550/release)
    Библиотека кодирования : VirtualDubMod build 2550/release
    Видео
    Идентификатор : 0
    Формат : MPEG-4 Visual
    Профиль формата : Advanced Simple@L5
    Параметр BVOP формата : 1
    Параметр QPel формата : Нет
    Параметр GMC формата : Без точки перехода
    Параметр матрицы формата : Выборочная
    Идентификатор кодека : XVID
    Идентификатор кодека/Подсказка : XviD
    Продолжительность : 1 ч. 20 м.
    Битрейт : 1095 Кбит/сек
    Ширина : 720 пикселей
    Высота : 304 пикселя
    Соотношение сторон : 2, 35: 1
    Частота кадров : 23, 976 (23976/1000) кадра/сек
    Цветовое пространство : YUV
    Субдискретизация насыщенности : 4: 2: 0
    Битовая глубина : 8 бит
    Тип развёртки : Прогрессивная
    Метод сжатия : С потерями
    Бит/(Пиксели*Кадры) : 0.209
    Размер потока : 632 Мбайт (84%)
    Библиотека кодирования : XviD 73
    Аудио
    Идентификатор : 1
    Формат : MPEG Audio
    Версия формата : Version 1
    Профиль формата : Layer 3
    Идентификатор кодека : 55
    Идентификатор кодека/Подсказка : MP3
    Продолжительность : 1 ч. 20 м.
    Вид битрейта : Постоянный
    Битрейт : 192 Кбит/сек
    Каналы : 2 канала
    Частота : 48, 0 КГц
    Метод сжатия : С потерями
    Размер потока : 111 Мбайт (15%)
    Выравнивание : Соединение по промежуткам
    Продолжительность промежутка : 42 мс. (1, 00 видеокадр)
    Время предзагрузки промежутка : 504 мс.
    Библиотека кодирования : LAME3.99r
    Залил: Evgen Portable

    Онлайн видео Восстановление


    Размер скачиваемого торрента: 747.85 MB (784177152 Bytes)


    Восстановление/Recovery (2016) WEB-DLRip от Portablius | L1
    загрузка...
    Рейтинг →
     (голосов: 1, оценка 5/5, голосовать можно 1 раз )

    Другие торренты по теме:

  • Восстановление / Recovery (2016) WEB-DLRip | L1
  • Восстановление / Recovery (2016) WEB-DL 1080p | L1
  • Восстановление / Recovery (2016) BDRip 1080p | L1


    • Комментарии (0):

      Информация

      Информация

        Посетители, находящиеся в группе Гости, не могут оставлять комментарии в данной новости.

        ↓ Меню



        ↓ Опрос

        А Вы добавили сайт в закладки?
        Да
        Не


        Top 10 за месяц (Фильмы)