.
Авторизация | Регистрация
Хочешь лучшие торренты? Добавь свой email!
Добавить
» » Кто такой Гарри Крамб / Whos Harry Crumb (1989) WEB-DL 1080p | P, P2, A скачать торрент бесплатно




    Кто такой Гарри Крамб / Whos Harry Crumb (1989) WEB-DL 1080p | P, P2, A скачать торрент бесплатно

    Опубликовал: Админ | Дата: 5-11-2016, 05:04 | Просмотров: 59



    Детально о кино
    Русское название: Кто такой Гарри Крамб?
    Русское название в мировом прокате: Who;s Harry Crumb?
    Создали в: 1989
    Категория жанра: комедия, криминал, детектив
    Главный режиссер: Пол Флаэрти

    Актеры
    Джон Кэнди, Джеффри Джонс, Энни Поттс, Тим Томерсон, Бэрри Корбин, Шоуни Смит, Вэлри Бромфилд, Даг Стеклер, Рени Коулмэн, Уэсли Манн

    Сюжет фильма

    Похищена дочь миллионера Пи Джея Даунинга. Безутешный отец обращается в детективное агентство Крамб и Крамб. Руководитель сыскного бюро Элиот Драйзен поручает расследование этого дела добродушному и непутевому детективу Гарри Крамбу.
    Он абсолютно уверен, что Гарри завалит это получение, как и все остальные. А это как раз то, что нужно. Но Гарри, похоже, решает доказать, что правила не бывает без исключений…

    Снималось в: США, Канада
    Киностудия: NBC Productions, TriStar Pictures
    Время просмотра: 01: 29: 49
    Перевод текста: Профессиональный (многоголосый, закадровый) 1 канал + Профессиональный (двухголосый, закадровый) НТВ+ + Профессиональный (двухголосый закадровый) + Авторский (одноголосый, закадровый) Алексей Михалёв
    Файл
    Тип видео: Matroska
    Информация о видео: 1916x1076 at 23.976 fps, MPEG-4 AVC, ~4900 kbps avg
    Информация о звуке#1: Russian: 48 kHz, AC3, 2/0 (L, R) ch, ~192.00 kbps avg |Многоголосый закадровый, 1 канал|
    Информация о звуке#2: Russian: 48 kHz, AC3, 2/0 (L, R) ch, ~192.00 kbps avg |Двухголосый закадровый, НТВ+|
    Информация о звуке#3: Russian: 48 kHz, AC3, 2/0 (L, R) ch, ~192.00 kbps avg |Двухголосый закадровый|
    Информация о звуке#4: Russian: 48 kHz, AC3, 2/0 (L, R) ch, ~192.00 kbps avg |Авторский, А.Михалёв|
    Информация о звуке#5: English: 48 kHz, AC3, 2/0 (L, R) ch, ~192.00 kbps avg
    Субтитры: English
    MI
    Общее
    Уникальный идентификатор : 214568887551928583303233068489253793528 (0xA16C76EDDD1A0013A3472F82340B2EF8)
    Полное имя : Who;s Harry Crumb. WEB-DL 1080p.mkv
    Формат : Matroska
    Версия формата : Version 4/Version 2
    Размер файла : 3, 73 Гбайт
    Продолжительность : 1 ч. 29 м.
    Общий поток : 5952 Кбит/сек
    Дата кодирования : UTC 2015-07-22 19: 14: 04
    Программа кодирования : mkvmerge v8.1.0 (;Psychedelic Postcard;) 64bit
    Библиотека кодирования : libebml v1.3.1 + libmatroska v1.4.2
    Видео
    Идентификатор : 1
    Формат : AVC
    Формат/Информация : Advanced Video Codec
    Профиль формата : High@L4
    Параметр CABAC формата : Да
    Параметр ReFrames формата : 4 кадра
    Идентификатор кодека : V_MPEG4/ISO/AVC
    Продолжительность : 1 ч. 29 м.
    Битрейт : 4873 Кбит/сек
    Ширина : 1916 пикселей
    Высота : 1076 пикселей
    Соотношение сторон : 16: 9
    Режим частоты кадров : Постоянный
    Частота кадров : 23, 976 кадра/сек
    Цветовое пространство : YUV
    Субдискретизация насыщенности : 4: 2: 0
    Битовая глубина : 8 бит
    Тип развёртки : Прогрессивная
    Бит/(Пиксели*Кадры) : 0.099
    Размер потока : 3, 06 Гбайт (82%)
    Язык : English
    Default : Да
    Forced : Нет
    Цветовой диапазон : Limited
    Основные цвета : BT.709
    Характеристики трансфера : BT.709
    Коэффициенты матрицы : BT.709
    Аудио #1
    Идентификатор : 2
    Формат : AC-3
    Формат/Информация : Audio Coding 3
    Расширение режима : CM (complete main)
    Параметр Endianness формата : Big
    Идентификатор кодека : A_AC3
    Продолжительность : 1 ч. 29 м.
    Вид битрейта : Постоянный
    Битрейт : 192 Кбит/сек
    Каналы : 2 канала
    Расположение каналов : Front: L R
    Частота : 48, 0 КГц
    Метод сжатия : С потерями
    Размер потока : 123 Мбайт (3%)
    Заголовок : 1 канал
    Язык : Russian
    Default : Да
    Forced : Нет
    Аудио #2
    Идентификатор : 3
    Формат : AC-3
    Формат/Информация : Audio Coding 3
    Расширение режима : CM (complete main)
    Параметр Endianness формата : Big
    Идентификатор кодека : A_AC3
    Продолжительность : 1 ч. 29 м.
    Вид битрейта : Постоянный
    Битрейт : 192 Кбит/сек
    Каналы : 2 канала
    Расположение каналов : Front: L R
    Частота : 48, 0 КГц
    Метод сжатия : С потерями
    Размер потока : 123 Мбайт (3%)
    Заголовок : НТВ+
    Язык : Russian
    Default : Нет
    Forced : Нет
    Аудио #3
    Идентификатор : 4
    Формат : AC-3
    Формат/Информация : Audio Coding 3
    Расширение режима : CM (complete main)
    Параметр Endianness формата : Big
    Идентификатор кодека : A_AC3
    Продолжительность : 1 ч. 29 м.
    Вид битрейта : Постоянный
    Битрейт : 192 Кбит/сек
    Каналы : 2 канала
    Расположение каналов : Front: L R
    Частота : 48, 0 КГц
    Метод сжатия : С потерями
    Размер потока : 123 Мбайт (3%)
    Язык : Russian
    Default : Нет
    Forced : Нет
    Аудио #4
    Идентификатор : 5
    Формат : AC-3
    Формат/Информация : Audio Coding 3
    Расширение режима : CM (complete main)
    Параметр Endianness формата : Big
    Идентификатор кодека : A_AC3
    Продолжительность : 1 ч. 29 м.
    Вид битрейта : Постоянный
    Битрейт : 192 Кбит/сек
    Каналы : 2 канала
    Расположение каналов : Front: L R
    Частота : 48, 0 КГц
    Метод сжатия : С потерями
    Размер потока : 123 Мбайт (3%)
    Заголовок : Алексей Михалёв
    Язык : Russian
    Default : Нет
    Forced : Нет
    Аудио #5
    Идентификатор : 6
    Формат : AC-3
    Формат/Информация : Audio Coding 3
    Расширение режима : CM (complete main)
    Параметр Endianness формата : Big
    Идентификатор кодека : A_AC3
    Продолжительность : 1 ч. 29 м.
    Вид битрейта : Постоянный
    Битрейт : 192 Кбит/сек
    Каналы : 2 канала
    Расположение каналов : Front: L R
    Частота : 48, 0 КГц
    Метод сжатия : С потерями
    Размер потока : 123 Мбайт (3%)
    Язык : English
    Default : Нет
    Forced : Нет
    Текст
    Идентификатор : 7
    Формат : UTF-8
    Идентификатор кодека : S_TEXT/UTF8
    Идентификатор кодека/Информация : UTF-8 Plain Text
    Язык : English
    Default : Нет
    Forced : Нет
    Меню
    00: 00: 00.000 : en: 1
    00: 05: 29.000 : en: 2
    00: 08: 41.000 : en: 3
    00: 16: 03.000 : en: 4
    00: 21: 54.000 : en: 5
    00: 25: 51.000 : en: 6
    00: 28: 57.000 : en: 7
    00: 35: 45.000 : en: 8
    00: 39: 48.000 : en: 9
    00: 47: 27.000 : en: 10
    00: 54: 13.000 : en: 11
    01: 00: 02.000 : en: 12
    01: 06: 12.000 : en: 13
    01: 12: 42.000 : en: 14
    01: 18: 52.000 : en: 15
    01: 24: 05.000 : en: 16
    Скриншоты

    Залил: MrRavage

    Онлайн видео Кто такой Гарри Крамб


    Размер скачиваемого торрента: 3.73 GB (4009022899 Bytes)

    Кто такой Гарри Крамб/Whos Harry Crumb (1989) WEB-DL 1080p | P, P2, A
    загрузка...
    Рейтинг →
     (голосов: 1, оценка 3/5, голосовать можно 1 раз )

    Другие торренты по теме:

  • Кто такой Гарри Крамб / Whos Harry Crumb (1989) WEB-DLRip-AVC от k.e.n NNMClub | P, P2, A
  • Кто такой Гарри Келлерман и почему он говорит обо мне ужасные вещи / Who Is Harry Kellerman and Why Is He Saying Those Terrible Things About Me (1971) DVDRip-AVC | P


    • Комментарии (0):

      Информация

      Информация

        Посетители, находящиеся в группе Гости, не могут оставлять комментарии в данной новости.

        ↓ Меню



        ↓ Опрос

        А Вы добавили сайт в закладки?
        Да
        Не


        Top 10 за месяц (Фильмы)