.
Авторизация | Регистрация
Хочешь лучшие торренты? Добавь свой email!
Добавить
» » Этот неловкий момент / Un moment dgarement (2015) DVD-9 от NovaLan | D скачать торрент бесплатно




    Этот неловкий момент / Un moment dgarement (2015) DVD-9 от NovaLan | D скачать торрент бесплатно

    Опубликовал: Админ | Дата: 5-11-2016, 05:04 | Просмотров: 65



    Детально о кино
    Русское название: Этот неловкий момент
    Русское название в мировом прокате: Un moment d;?garement
    Создали в: 2015
    Категория жанра: Комедия
    Главный режиссер: Жан-Франсуа Рише

    Актеры
    Венсан Кассель, Франсуа Клюзе, Алис Исааз, Лола Ле Ланн, Филипп Наон
    Описание: Два закадычных друга со своими дочерьми проводят отпуск на Ривьере, где на солнечных пляжах 42-летнему отцу семейства не устоять перед чарами соблазнительной 18-летней красотки и предстоит по уши влюбиться. Все бы ничего, да только прелестная девушка является дочерью лучшего друга — строгого отца, грозящего пристрелить любого, кто подойдет ближе, чем на шаг, к обожаемой малышке.
    Снималось в: Франция
    Киностудия: Entre Chien et Loup, La Petite Reine
    Время просмотра: 01: 45: 22
    Перевод текста: Дублированный
    Файл
    Кодек для видео: MPEG-2
    Качество фильма: DVD-9
    Информация о видео: MPEG2, NTSC 16: 9 (720x480@853x480) VBR, 23, 976 кадра/сек
    Информация о звуке: Русский/Французский DD 5.1 (448 Kbps)

    Меню
    DVDInfo

    Title:
    Size: 5.44 Gb ( 5 699 576 KBytes ) - DVD-9
    Enabled regions: 1, 2, 3, 4, 5, 6, 7, 8
    VTS_01 :
    Play Length: 01: 45: 22
    Video: NTSC 16: 9 (720x480) VBR, Auto PanScan
    Audio:
    Russian (Dolby AC3, 6 ch)
    Francais (Dolby AC3, 6 ch)
    Menu Video:
    NTSC 4: 3 (720x480) VBR
    Menu English Language Unit :
    Root Menu
    MediaInfo

    Общее
    Полное имя : G: ААА2Этот неловкий моментVIDEO_TSVTS_01_1.VOB
    Формат : MPEG-PS
    Размер файла : 1000 Мбайт
    Продолжительность : 18 м.
    Режим общего битрейта : Переменный
    Общий поток : 7386 Кбит/сек
    Видео
    Идентификатор : 224 (0xE0)
    Формат : MPEG Video
    Версия формата : Version 2
    Профиль формата : Main@Main
    Параметр BVOP формата : Да
    Параметр матрицы формата : По умолчанию
    Параметр GOP формата : M=3, N=12
    Продолжительность : 18 м.
    Вид битрейта : Переменный
    Битрейт : 6343 Кбит/сек
    Максимальный битрейт : 8312 Кбит/сек
    Ширина : 720 пикселей
    Высота : 480 пикселей
    Соотношение сторон : 16: 9
    Частота кадров : 23, 976 кадра/сек
    Стандарт вещания : NTSC
    Цветовое пространство : YUV
    Субдискретизация насыщенности : 4: 2: 0
    Битовая глубина : 8 бит
    Тип развёртки : Прогрессивная
    Порядок развёртки : 2: 3 Pulldown
    Метод сжатия : С потерями
    Бит/(Пиксели*Кадры) : 0.765
    TimeCode_FirstFrame : 00: 00: 00;00
    TimeCode_Source : Group of pictures t_head
    Размер потока : 859 Мбайт (86%)
    Аудио #1
    Идентификатор : 189 (0xBD)-128 (0x80)
    Формат : AC-3
    Формат/Информация : Audio Coding 3
    Расширение режима : CM (complete main)
    Параметр Endianness формата : Big
    Режим смешивания : DVD-Video
    Продолжительность : 18 м.
    Вид битрейта : Постоянный
    Битрейт : 448 Кбит/сек
    Каналы : 6 каналов
    Расположение каналов : Front: L C R, Side: L R, LFE
    Частота : 48, 0 КГц
    Битовая глубина : 16 бит
    Метод сжатия : С потерями
    Размер потока : 60, 7 Мбайт (6%)
    Аудио #2
    Идентификатор : 189 (0xBD)-129 (0x81)
    Формат : AC-3
    Формат/Информация : Audio Coding 3
    Расширение режима : CM (complete main)
    Параметр Endianness формата : Big
    Режим смешивания : DVD-Video
    Продолжительность : 18 м.
    Вид битрейта : Постоянный
    Битрейт : 448 Кбит/сек
    Каналы : 6 каналов
    Расположение каналов : Front: L C R, Side: L R, LFE
    Частота : 48, 0 КГц
    Битовая глубина : 16 бит
    Метод сжатия : С потерями
    Размер потока : 60, 7 Мбайт (6%)
    Меню

    Скриншоты



    Релиз:
    Залил: YArl

    Онлайн видео Этот неловкий момент


    Размер скачиваемого торрента: 5.44 GB (5836365824 Bytes)

    Этот неловкий момент/Un moment dgarement (2015) DVD-9 от NovaLan | D
    загрузка...
    Рейтинг →
     (голосов: 1, оценка 5/5, голосовать можно 1 раз )

    Другие торренты по теме:

  • Этот неловкий момент (2014) скачать через торрент бесплатно
  • Этот неловкий момент / That Awkward Moment (2014) TS
  • Этот неловкий момент / That Awkward Moment (2014) DVDRip | Лицензия
  • Этот неловкий момент / That Awkward Moment (2014) DVD5 R5 от New-Team | лицензия скачать через торрент бесплатно
  • Этот неловкий момент / That Awkward Moment (2014) DVDRip-AVC от New-Team | лицензия скачать через торрент бесплатно
  • Этот неловкий момент / That Awkward Moment (2014) DVDRip от New-Team | лицензия скачать через торрент бесплатно
  • Этот неловкий момент / That Awkward Moment (2013) DVDRip от Scarabey | Лицензия скачать через торрент бесплатно
  • Этот неловкий момент / That Awkward Moment (2014) WEB-DLRip скачать через торрент бесплатно


    • Комментарии (0):

      Информация

      Информация

        Посетители, находящиеся в группе Гости, не могут оставлять комментарии в данной новости.

        ↓ Меню



        ↓ Опрос

        А Вы добавили сайт в закладки?
        Да
        Не


        Top 10 за месяц (Фильмы)