.
Авторизация | Регистрация
Хочешь лучшие торренты? Добавь свой email!
Добавить
» » Стартрек: Бесконечность / Star Trek Beyond (2016) BDRip 720p от ExKinoRay | Лицензия скачать торрент бесплатно




    Стартрек: Бесконечность / Star Trek Beyond (2016) BDRip 720p от ExKinoRay | Лицензия скачать торрент бесплатно

    Опубликовал: Админ | Дата: 5-11-2016, 05:04 | Просмотров: 55



    Детально о кино
    Русское название: Стартрек: Бесконечность
    Русское название в мировом прокате: Star Trek Beyond
    Создали в: 2016
    Категория жанра: Фантастика, боевик, триллер, приключения
    Главный режиссер: Джастин Лин

    Актеры
    Крис Пайн, Закари Куинто, Саймон Пегг, Карл Урбан, Зои Салдана, Джон Чо, Антон Ельчин, Идрис Эльба, София Бутелла, Джо Таслим
    О фильме:
    Через два года после начала очередной космической миссии команда Энтерпрайза сталкивается с испытанием, перед которым меркнут все предыдущие приключения отважного экипажа. После атаки неопознанных врагов корабль терпит бедствие на таинственной, затерянной в глубинах пространства планете. Оказавшись на краю Вселенной, лишенные помощи Федерации, капитан Кирк и его товарищи узнают о существовании чудовищного оружия, угрожающего обитаемым планетным системам.

    Снималось в: США
    Киностудия: Bad Robot, Paramount Pictures, Perfect Storm Entertainment, Skydance Productions, Sneaky Shark
    Время просмотра: 02: 02: 19
    Перевод текста: Дублированный | Лицензия
    Файл
    Кодек для видео: MPEG-4
    Качество фильма: BDRip 720p
    Информация о видео: 1280x536, 5229 Kbit/s, 23.976 fps
    Информация о звуке:
    Информация о звуке #01: 48 kHz, AC3, 5.1, 640 Kbps | Дублированный | Лицензия |
    Информация о звуке #02: 48 kHz, AC3, 5.1, 448 kbps | Оригинал |
    Субтитры: Русские (forced, full), английские
    MI
    General
    Unique ID : 212277917937480343963154245645382128539 (0x9FB33D680A9E5500A240272922B3139B)
    Complete name : H: VideoStar.Trek.Beyond.2016.DD.BDRip.720.ExKinoRay.mkv
    Format : Matroska
    Format version : Version 4/Version 2
    File size : 5.40 GiB
    Duration : 2 h 2 min
    Overall bit rate : 6 317 kb/s
    Movie name : ***селезень***
    Encoded date : UTC 2016-11-02 15: 51: 42
    Writing application : mkvmerge v8.3.0 (;Over the Horizon;) 64bit
    Writing library : libebml v1.3.1 + libmatroska v1.4.2
    Video
    ID : 1
    Format : AVC
    Format/Info : Advanced Video Codec
    Format profile : High@L4.1
    Format settings, CABAC : Yes
    Format settings, ReFrames : 12 frames
    Codec ID : V_MPEG4/ISO/AVC
    Duration : 2 h 2 min
    Bit rate : 5 229 kb/s
    Width : 1 280 pixels
    Height : 536 pixels
    Display aspect ratio : 2.40: 1
    Frame rate mode : Constant
    Frame rate : 23.976 (24000/1001) FPS
    Color space : YUV
    Chroma subsampling : 4: 2: 0
    Bit depth : 8 bits
    Scan type : Progressive
    Bits/(Pixel*Frame) : 0.318
    Stream size : 4.47 GiB (83%)
    Title : ***селезень***
    Writing library : x264 core 146 r2538 121396c
    Encoding settings : cabac=1/ref=12/deblock=1: -3: -3/analyse=0x3: 0x133/me=umh/subme=11/psy=1/psy_rd=1.05: 0.05/mixed_ref=1/me_range=32/chroma_me=1/trellis=2/8x8dct=1/cqm=0/deadzone=21, 11/fast_pskip=0/chroma_qp_offset=-3/threads=6/lookahead_threads=1/sliced_threads=0/nr=0/decimate=0/interlaced=0/bluray_compat=0/constrained_intra=0/bframes=8/b_pyramid=2/b_adapt=2/b_bias=0/direct=3/weightb=1/open_gop=0/weightp=2/keyint=240/keyint_min=23/scenecut=40/intra_refresh=0/rc_lookahead=60/rc=2pass/mbtree=1/bitrate=5229/ratetol=1.0/qcomp=0.60/qpmin=0/qpmax=69/qpstep=4/cplxblur=20.0/qblur=0.5/vbv_maxrate=50000/vbv_bufsize=62500/nal_hrd=none/filler=0/ip_ratio=1.40/aq=1: 0.80
    Language : English
    Default : Yes
    Forced : No
    Audio #1
    ID : 2
    Format : AC-3
    Format/Info : Audio Coding 3
    Mode extension : CM (complete main)
    Format settings, Endianness : Big
    Codec ID : A_AC3
    Duration : 2 h 2 min
    Bit rate mode : Constant
    Bit rate : 640 kb/s
    Channel(s) : 6 channels
    Channel positions : Front: L C R, Side: L R, LFE
    Sampling rate : 48.0 kHz
    Frame rate : 31.250 FPS (1536 spf)
    Bit depth : 16 bits
    Compression mode : Lossy
    Stream size : 560 MiB (10%)
    Title : Dub License
    Language : Russian
    Default : Yes
    Forced : No
    Audio #2
    ID : 3
    Format : AC-3
    Format/Info : Audio Coding 3
    Mode extension : CM (complete main)
    Format settings, Endianness : Big
    Codec ID : A_AC3
    Duration : 2 h 2 min
    Bit rate mode : Constant
    Bit rate : 448 kb/s
    Channel(s) : 6 channels
    Channel positions : Front: L C R, Side: L R, LFE
    Sampling rate : 48.0 kHz
    Frame rate : 31.250 FPS (1536 spf)
    Bit depth : 16 bits
    Compression mode : Lossy
    Stream size : 392 MiB (7%)
    Title : Original
    Language : English
    Default : No
    Forced : No
    Text #1
    ID : 4
    Format : UTF-8
    Codec ID : S_TEXT/UTF8
    Codec ID/Info : UTF-8 Plain Text
    Duration : 1 h 49 min
    Bit rate : 1 b/s
    Count of elements : 33
    Stream size : 1.59 KiB (0%)
    Title : Forced potroks
    Language : Russian
    Default : Yes
    Forced : No
    Text #2
    ID : 5
    Format : UTF-8
    Codec ID : S_TEXT/UTF8
    Codec ID/Info : UTF-8 Plain Text
    Duration : 59 min 3 s
    Bit rate : 0 b/s
    Count of elements : 15
    Stream size : 365 Bytes (0%)
    Title : Forced iTunes
    Language : English
    Default : No
    Forced : No
    Text #3
    ID : 6
    Format : UTF-8
    Codec ID : S_TEXT/UTF8
    Codec ID/Info : UTF-8 Plain Text
    Duration : 1 h 54 min
    Bit rate : 72 b/s
    Count of elements : 1135
    Stream size : 60.4 KiB (0%)
    Title : Full iTunes
    Language : Russian
    Default : No
    Forced : No
    Text #4
    ID : 7
    Format : UTF-8
    Codec ID : S_TEXT/UTF8
    Codec ID/Info : UTF-8 Plain Text
    Duration : 1 h 51 min
    Bit rate : 88 b/s
    Count of elements : 1231
    Stream size : 72.2 KiB (0%)
    Title : Full Notabenoid
    Language : Russian
    Default : No
    Forced : No
    Text #5
    ID : 8
    Format : UTF-8
    Codec ID : S_TEXT/UTF8
    Codec ID/Info : UTF-8 Plain Text
    Duration : 1 h 51 min
    Bit rate : 74 b/s
    Count of elements : 1526
    Stream size : 61.3 KiB (0%)
    Title : Full
    Language : English
    Default : No
    Forced : No
    Text #6
    ID : 9
    Format : UTF-8
    Codec ID : S_TEXT/UTF8
    Codec ID/Info : UTF-8 Plain Text
    Duration : 1 h 51 min
    Bit rate : 58 b/s
    Count of elements : 1527
    Stream size : 47.5 KiB (0%)
    Title : SDH
    Language : English
    Default : No
    Forced : No
    Menu
    00: 00: 00.000 : en: Chapter 1
    00: 08: 26.547 : en: Chapter 2
    00: 16: 11.636 : en: Chapter 3
    00: 32: 38.288 : en: Chapter 4
    00: 42: 16.367 : en: Chapter 5
    00: 52: 22.264 : en: Chapter 6
    00: 59: 50.628 : en: Chapter 7
    01: 12: 05.529 : en: Chapter 8
    01: 22: 34.448 : en: Chapter 9
    01: 33: 00.948 : en: Chapter 10
    01: 40: 33.318 : en: Chapter 11
    01: 47: 38.993 : en: Chapter 12
    01: 52: 32.662 : en: Chapter 13
    01: 55: 41.350 : en: Chapter 14


    Релиз подготовил: Автор релиза:

    Онлайн видео Стартрек: Бесконечность


    Размер скачиваемого торрента: 5.40 GB (5797690263 Bytes)

    Стартрек: Бесконечность/Star Trek Beyond (2016) BDRip 720p от ExKinoRay | Лицензия
    загрузка...
    Рейтинг →
     (голосов: 1, оценка 5/5, голосовать можно 1 раз )

    Другие торренты по теме:

  • Стартрек: Бесконечность (2016)
  • Стартрек: Бесконечность / Star Trek Beyond (2016) TS | D
  • Стартрек: Бесконечность / Star Trek Beyond (2016) WEB-DLRip | Звук c TS
  • Стартрек: Бесконечность / Star Trek Beyond (2016) WEB-DLRip | Line
  • Стартрек: Бесконечность / Star Trek Beyond (2016) WEB-DLRip | Line
  • Стартрек: Бесконечность / Star Trek Beyond (2016) WEB-DLRip от AleksSin | Line
  • Стартрек: Бесконечность / Star Trek Beyond (2016) WEB-DLRip от Scarabey | Line
  • Стартрек: Бесконечность / Star Trek Beyond (2016) WEB-DLRip от AleksSin | Line


    • Комментарии (0):

      Информация

      Информация

        Посетители, находящиеся в группе Гости, не могут оставлять комментарии в данной новости.

        ↓ Меню



        ↓ Опрос

        А Вы добавили сайт в закладки?
        Да
        Не


        Top 10 за месяц (Фильмы)