.
Авторизация | Регистрация
Хочешь лучшие торренты? Добавь свой email!
Добавить
» » Великая сила (1950) DVDRip от New-Team скачать торрент бесплатно




    Великая сила (1950) DVDRip от New-Team скачать торрент бесплатно

    Опубликовал: Админ | Дата: 5-11-2016, 05:03 | Просмотров: 36



    Снималось в: СССР
    Создали в: Ленфильм
    Категория жанра: драма
    Создали в: 1950
    Время просмотра: 01: 39: 24
    Перевод текста: Не требуется
    Субтитры подготовлены: нет
    Оригинальная аудиодорожка: русский
    Главный режиссер: Фридрих Эрмлер

    Актеры

    Борис Бабочкин, Виктор Хохряков, Галина Инютина, Юрий Толубеев, Николай Боголюбов, Фёдор Никитин, Борис Смирнов, Александр Виолинов, Ольга Аросева, В. Горбунова, Инна Кондратьева, Мария Мазун, Анна Лисянская, Александра Тришко, Владимир Дорофеев, Михаил Дубрава, Пётр Лобанов, Владимир Марьев, В. Сухарев, Герман Хованов...
    Полный список актёров
    Описание:
    Профессор Лавров, ученик и последователь Мичурина, пытается опровергнуть открытия теории наследственности и успешно работает над выведением новой породы кур высокой яйценоскости и продуктивности. Смелого экспериментатора поддерживает ЦК КПСС в лице прибывшего на опытную птицеферму тов. Остроумова.



    Источник: DVD5 R5
    Качество фильма видео: DVDRip
    Тип видео видео: AVI
    Информация о видео: 576x432 (4: 3), 25 fps, XviD ~ 911 kbps avg, 0.146 bit/pixel
    Информация о звуке: 48 kHz, MP3 2.0, 128 kbps
    Раздача от:
    MediaInfo

    Общее
    Полное имя : Velikaya.sila.1950.DVDRip-745_New-team_by_AVP_Studio.avi
    Формат : AVI
    Формат/Информация : Audio Video Interleave
    Размер файла : 745 Мбайт
    Продолжительность : 1 ч. 39 м.
    Общий поток : 1049 Кбит/сек
    Программа кодирования : VirtualDubMod 1.5.10.3 | www.virtualdub-fr.org || (build 2550/release)
    Библиотека кодирования : VirtualDubMod build 2550/release
    Видео
    Идентификатор : 0
    Формат : MPEG-4 Visual
    Профиль формата : Advanced Simple@L5
    Параметр BVOP формата : 1
    Параметр QPel формата : Нет
    Параметр GMC формата : Без точки перехода
    Параметр матрицы формата : Выборочная
    Идентификатор кодека : XVID
    Идентификатор кодека/Подсказка : XviD
    Продолжительность : 1 ч. 39 м.
    Битрейт : 911 Кбит/сек
    Ширина : 576 пикселей
    Высота : 432 пикселя
    Соотношение сторон : 4: 3
    Частота кадров : 25, 000 кадров/сек
    Цветовое пространство : YUV
    Субдискретизация насыщенности : 4: 2: 0
    Битовая глубина : 8 бит
    Тип развёртки : Прогрессивная
    Метод сжатия : С потерями
    Бит/(Пиксели*Кадры) : 0.146
    Размер потока : 648 Мбайт (87%)
    Библиотека кодирования : XviD 73
    Аудио
    Идентификатор : 1
    Формат : MPEG Audio
    Версия формата : Version 1
    Профиль формата : Layer 3
    Идентификатор кодека : 55
    Идентификатор кодека/Подсказка : MP3
    Продолжительность : 1 ч. 39 м.
    Вид битрейта : Постоянный
    Битрейт : 128 Кбит/сек
    Каналы : 2 канала
    Частота : 48, 0 КГц
    Метод сжатия : С потерями
    Размер потока : 91, 0 Мбайт (12%)
    Выравнивание : Соединение по промежуткам
    Продолжительность промежутка : 40 мс. (1, 00 видеокадр)
    Время предзагрузки промежутка : 504 мс.
    Библиотека кодирования : LAME3.99r
    Залил: AVPStudio

    Онлайн видео Великая сила (1950) DVDRip от New


    Размер скачиваемого торрента: 745.49 MB (781701120 Bytes)


    Великая сила (1950) DVDRip от New-Team
    загрузка...
    Рейтинг →
     (голосов: 1, оценка 3/5, голосовать можно 1 раз )

    Другие торренты по теме:

  • Великая (Екатерина Великая) (1-4 серии из 12) / 2015 / РУ / HDTV (1080i)
  • Великая Афродита / Mighty Aphrodite (1995) BDRip от Rulya74
  • Великая книга пасхальных яиц (2007) PDF от RG Superdetki
  • Великая война (2010-2012) DVDRip от Youtracker | лицензия
  • Великая война (2010-2012) 3xDVD9 от Youtracker | лицензия
  • Нам и не снилось! Великая тайна воды (2013) IPTVRip
  • Великая война (2010-2012) DVDRip-AVC от Youtracker | лицензия
  • Великая война. Курская дуга (2013) HDTV 1080i от MediaClub


    • Комментарии (0):

      Информация

      Информация

        Посетители, находящиеся в группе Гости, не могут оставлять комментарии в данной новости.

        ↓ Меню



        ↓ Опрос

        А Вы добавили сайт в закладки?
        Да
        Не


        Top 10 за месяц (Фильмы)