.
Авторизация | Регистрация
Хочешь лучшие торренты? Добавь свой email!
Добавить




Посредник (1990) SATRip скачать торрент бесплатно

Опубликовал: Админ | Дата: 5-11-2016, 05:03 | Просмотров: 9



Детально о кино
Русское название: Посредник
Создали в: 1990
Категория жанра: Фантастика
Главный режиссёр: Владимир Потапов

Актеры
Олег Федоров, Олеся Судзиловская, Инара Слуцка, Валерий Сторожик, Андрей Тарасенко, Дмитрий Матвеев, Евгений Редько, Альгис Матуленис

Сюжет фильма
На Землю, в маленький городок прибывает десант пришельцев, которые внедряют разумы своих соплемеников в тела людей, полностью подавляя волю последних. Используют они для этого специальные устройства - Посредники. Цель оккупантов - подготовить плацдарм и захватить радиообсерваторию, чтобы дать на орбиту сигнал основным силам и кораблям к массовому вторжению...

Снималось в: СССР
Киностудия: Студия Горького, ТВК
Время просмотра: 03: 37: 57
Перевод текста: Не требуется (оригинальный)
Файл
Тип видео: avi
Качество фильма: SATRip (DVB)
Информация о видео: XviD, 688х512, 25fps, 1230kbps
Информация о звуке: MPEG Layer 3, 2ch, 48000Hz, 192kbps

MediaInfo

General
Complete name : Posrednik.1990.O.SATRip.2100.CurHaJI.avi
Format : AVI
Format/Info : Audio Video Interleave
Format profile : OpenDML
File size : 2.18 GiB
Duration : 3h 37mn
Overall bit rate : 1 432 Kbps
Movie name : Posrednik.1990.O.SATRip.2100.CurHaJI
Writing library : VirtualDub build 35491/release
Video
ID : 0
Format : MPEG-4 Visual
Format profile : Advanced Simple@L5
Format settings, BVOP : 1
Format settings, QPel : No
Format settings, GMC : No warppoints
Format settings, Matrix : Custom
Codec ID : XVID
Codec ID/Hint : XviD
Duration : 3h 37mn
Bit rate : 1 230 Kbps
Width : 688 pixels
Height : 512 pixels
Display aspect ratio : 4: 3
Frame rate : 20.000 fps
Color space : YUV
Chroma subsampling : 4: 2: 0
Bit depth : 8 bits
Scan type : Progressive
Compression mode : Lossy
Bits/(Pixel*Frame) : 0.175
Stream size : 1.87 GiB (86%)
Writing library : XviD 73
Audio
ID : 1
Format : MPEG Audio
Format version : Version 1
Format profile : Layer 3
Codec ID : 55
Codec ID/Hint : MP3
Duration : 3h 37mn
Bit rate mode : Constant
Bit rate : 192 Kbps
Channel(s) : 2 channels
Sampling rate : 48.0 KHz
Compression mode : Lossy
Stream size : 299 MiB (13%)
Alignment : Split accross interleaves
Interleave, duration : 50 ms (1.00 video frame)
Interleave, preload duration : 500 ms
Writing library : LAME3.99r
Encoding settings : -m s -V 4 -q 2 -lowpass 18.6 -b 192
Скриншоты


Сравнение

http://rutor.info/torrent/45005/posrednik-1990-dvdrip
http://screenshotcomparison.com/comparison/189284

Релиз подготовил:
Залил: CurHaJI

Онлайн видео Забудь меня, мама! (2016) WEB


Размер скачиваемого торрента: 2.18 GB (2340389260 Bytes)

Посредник (1990) SATRip
загрузка...
Рейтинг →
 (голосов: 1, оценка 4/5, голосовать можно 1 раз )

Другие торренты по теме:

  • Посредник / Грач SATRip от Files-x
  • Посредник (2013) SATRip
  • Посредник (3 серии из 3) / 1990 / РУ / SATRip


    • Комментарии (0):

      Информация

      Информация

        Посетители, находящиеся в группе Гости, не могут оставлять комментарии в данной новости.

        ↓ Меню



        ↓ Опрос

        А Вы добавили сайт в закладки?
        Да
        Не


        Top 10 за месяц (Фильмы)