.
Авторизация | Регистрация
Хочешь лучшие торренты? Добавь свой email!
Добавить
» » Будьте моим мужем (1981) HDTVRip 720р скачать торрент бесплатно




    Будьте моим мужем (1981) HDTVRip 720р скачать торрент бесплатно

    Опубликовал: Админ | Дата: 5-11-2016, 05:03 | Просмотров: 15



    Детально о кино
    Русское название: Будьте моим мужем
    Создали в: 1981
    Категория жанра: Драма, мелодрама, комедия
    Главный режиссер: Алла Сурикова

    Актеры
    Елена Проклова, Андрей Миронов, Филипп Адамович, Нина Русланова, Наталья Крачковская, Владимир Басов ст., Антон Табаков, Баадур Цуладзе, Олег Анофриев, Николай Гринько, Георгий Штиль, Леонард Саркисов, Михаил Светин, Анна Варпаховская, Валентина Воилкова, Михаил Херхеулидзе, Туфа Фазылова, Семён Фарада, Абдулхайр Касымов, Ольга Анохина

    Сюжет фильма

    Детский врач отправляется в отпуск на Юг, где его услуги в качестве… мужа понадобились молодой и очень красивой женщине. Дело в том, что одной с ребенком ей никто сдавать квартиру в курортном городе не хотел. Нравы тогда такие были.
    Вот ей и понадобился человек, который мог бы разыграть из себя ее мужа для поселения в частном секторе. Ну а как у них сложатся отношения и в других областях, зритель предпочтет узнать сам. Легкая музыкальная комедия с прекрасными актерами.

    Снималось в: СССР
    Киностудия: Мосфильм
    Время просмотра: 01: 22: 10
    Перевод текста: Не требуется
    Файл
    Качество фильма: HDTVRip 720p
    Тип видео: MKV
    Кодек для видео: MPEG-4 AVC Video
    Информация о видео: 976x704 (1, 386: 1), 25 fps, MPEG-4 AVC ~3960 kbps avg, 0.231 bit/pixel
    Информация о звуке: AC3, 48 kHz, 6 ch, ~448.00 kbps avg | русский
    Субтитры: Отсутствуют
    Семпл
    Инфо-файл
    Общее
    Уникальный идентификатор : 246301386859063723580476795542517676987 (0xB94BEBEFEAD49268BB25FA0FA1B17BBB)
    Полное имя : Budte.moim.muzhem.1981.720p.mkv
    Формат : Matroska
    Версия формата : Version 4/Version 2
    Размер файла : 2, 54 Гбайт
    Продолжительность : 1 ч. 22 м.
    Общий поток : 4427 Кбит/сек
    Название фильма : Будьте моим мужем (1981)
    Дата кодирования : UTC 2016-10-26 23: 17: 57
    Программа кодирования : mkvmerge v8.3.0 (;Over the Horizon;) 64bit
    Библиотека кодирования : libebml v1.3.1 + libmatroska v1.4.2
    DURATION : 01: 22: 08.736000000
    NUMBER_OF_FRAMES : 154023
    NUMBER_OF_BYTES : 276009216
    _STATISTICS_WRITING_APP : mkvmerge v8.3.0 (;Over the Horizon;) 64bit
    _STATISTICS_WRITING_DATE_UTC : 2016-10-26 23: 17: 57
    _STATISTICS_TAGS : BPS DURATION NUMBER_OF_FRAMES NUMBER_OF_BYTES
    Видео
    Идентификатор : 1
    Формат : AVC
    Формат/Информация : Advanced Video Codec
    Профиль формата : High@L4
    Параметр CABAC формата : Да
    Параметр ReFrames формата : 10 кадров
    Идентификатор кодека : V_MPEG4/ISO/AVC
    Продолжительность : 1 ч. 22 м.
    Битрейт : 3960 Кбит/сек
    Ширина : 976 пикселей
    Высота : 704 пикселя
    Соотношение сторон : 1, 386
    Режим частоты кадров : Постоянный
    Частота кадров : 25, 000 кадров/сек
    Цветовое пространство : YUV
    Субдискретизация насыщенности : 4: 2: 0
    Битовая глубина : 8 бит
    Тип развёртки : Прогрессивная
    Бит/(Пиксели*Кадры) : 0.231
    Размер потока : 2, 23 Гбайт (88%)
    Заголовок : Budte.moim.muzhem.1981.720p
    Библиотека кодирования : x264 core 146 r2538 121396c
    Настройки программы : cabac=1/ref=10/deblock=1: -1: 1/analyse=0x3: 0x133/me=umh/subme=11/psy=1/psy_rd=1.25: 0.35/mixed_ref=1/me_range=30/chroma_me=1/trellis=2/8x8dct=1/cqm=0/deadzone=21, 11/fast_pskip=1/chroma_qp_offset=-4/threads=12/lookahead_threads=1/sliced_threads=0/nr=0/decimate=0/interlaced=0/bluray_compat=0/constrained_intra=0/bframes=6/b_pyramid=2/b_adapt=1/b_bias=0/direct=1/weightb=1/open_gop=1/weightp=2/keyint=250/keyint_min=25/scenecut=40/intra_refresh=0/rc_lookahead=40/rc=abr/mbtree=1/bitrate=3960/ratetol=1.0/qcomp=0.60/qpmin=0/qpmax=69/qpstep=4/ip_ratio=1.40/aq=1: 1.10
    Язык : Russian
    Default : Да
    Forced : Да
    Цветовой диапазон : Limited
    Основные цвета : Generic film
    Аудио
    Идентификатор : 2
    Формат : AC-3
    Формат/Информация : Audio Coding 3
    Расширение режима : CM (complete main)
    Параметр Endianness формата : Big
    Идентификатор кодека : A_AC3
    Продолжительность : 1 ч. 22 м.
    Вид битрейта : Постоянный
    Битрейт : 448 Кбит/сек
    Каналы : 6 каналов
    Расположение каналов : Front: L C R, Side: L R, LFE
    Частота : 48, 0 КГц
    Метод сжатия : С потерями
    Размер потока : 263 Мбайт (10%)
    Язык : Russian
    Default : Да
    Forced : Нет
    Скриншоты


    Онлайн видео Любовь на два полюса (2011) WEB


    Размер скачиваемого торрента: 2.54 GB (2728014052 Bytes)

    Будьте моим мужем (1981) HDTVRip 720р
    загрузка...
    Рейтинг →
     (голосов: 1, оценка 4/5, голосовать можно 1 раз )

    Другие торренты по теме:

  • Будьте моим мужем / 1981 / РУ / DVD-5
  • Будьте моим мужем (1981) WEB-DLRip от Koenig
  • Будьте моим мужем / 1981 / РУ / HDTVRip (720p)


    • Комментарии (0):

      Информация

      Информация

        Посетители, находящиеся в группе Гости, не могут оставлять комментарии в данной новости.

        ↓ Меню



        ↓ Опрос

        А Вы добавили сайт в закладки?
        Да
        Не


        Top 10 за месяц (Фильмы)