.
Авторизация | Регистрация
Хочешь лучшие торренты? Добавь свой email!
Добавить
» » Восставшие мертвецы: Конец игры / Dead Rising: Endgame (2016) BDRip 720p от k.e.n | L скачать торрент бесплатно




    Восставшие мертвецы: Конец игры / Dead Rising: Endgame (2016) BDRip 720p от k.e.n | L скачать торрент бесплатно

    Опубликовал: Админ | Дата: 5-11-2016, 05:00 | Просмотров: 8



    Детально о кино
    Русское название: Восставшие мертвецы: конец игры
    Русское название в мировом прокате: Dead Rising: Endgame
    Создали в: 2016
    Категория жанра: Ужасы, боевик
    Главный режиссер: Пэт Уильямс

    Актеры
    Джесси Меткалф, Киган Коннор Трэйси, Джессика Хэрмон, Дэннис Хэйсбёрт, Мари Авгеропулос, Тич Грант, Дакота Гуппи, Наоми Кайл, Стивен Лобо, Кертис Льюм

    Сюжет фильма

    Продолжение экранизации игрового хита от Dead Rising об оживших мертвецах и способах их аннигиляции подручными средствами. Джесси Меткалф возвращается в роли Чейза, бесстрашного выжившего, чьи навыки ведения боя с зомби стали еще более эффективными. Он снова выясняет интересные подробности о зомби-вирусе и правительстве.

    Снималось в: США
    Киностудия: Contradiction Films, DR2 Productions, Legendary Digital Media, Sony Pictures Entertainment (SPE)
    Время просмотра: 01: 36: 12
    Перевод текста: Любительский (многоголосый, закадровый) | Paradox Omskbird records
    Субтитры: Английские
    Файл
    Качество фильма: BDRip (720p)
    Информация о видео: AVC, 1280x534 (2.35: 1), 23.976 fps, 4 285 Kbps (0.226 bit/pixel)
    Информация о звуке #1: AC-3, 48.0 KHz, 6 ch, 448 Kbps, CBR (Russian)
    Информация о звуке #2: AC-3, 48.0 KHz, 6 ch, 448 Kbps, CBR (English)
    x264 log:
    x264 info: frame I: 1100 Avg QP: 15.31 size: 87864 PSNR Mean Y: 48.14 U: 52.90 V: 52.89 Avg: 49.15 Global: 48.05
    x264 info: frame P: 34381 Avg QP: 18.04 size: 38644 PSNR Mean Y: 46.32 U: 51.90 V: 51.95 Avg: 47.43 Global: 46.25
    x264 info: frame B: 102915 Avg QP: 19.73 size: 16170 PSNR Mean Y: 44.84 U: 50.62 V: 50.80 Avg: 45.98 Global: 44.88
    Mediainfo:

    Формат : Matroska
    Версия формата : Version 2
    Размер файла : 3, 48 Гбайт
    Продолжительность : 1 ч. 36 м.
    Общий поток : 5179 Кбит/сек
    Дата кодирования : UTC 2016-11-04 14: 51: 42
    Программа кодирования : mkvmerge v5.3.0 (;I could have danced;) built on Feb 9 2012 10: 38: 07
    Библиотека кодирования : libebml v1.2.3 + libmatroska v1.3.0
    Attachment : Yes
    Видео
    Идентификатор : 1
    Формат : AVC
    Формат/Информация : Advanced Video Codec
    Профиль формата : High@L4.1
    Параметр CABAC формата : Да
    Параметр ReFrames формата : 11 кадров
    Идентификатор кодека : V_MPEG4/ISO/AVC
    Продолжительность : 1 ч. 36 м.
    Битрейт : 4285 Кбит/сек
    Ширина : 1280 пикселей
    Высота : 534 пикселя
    Соотношение сторон : 2, 40: 1
    Режим частоты кадров : Постоянный
    Частота кадров : 23, 976 кадра/сек
    Цветовое пространство : YUV
    Субдискретизация насыщенности : 4: 2: 0
    Битовая глубина : 8 бит
    Тип развёртки : Прогрессивная
    Бит/(Пиксели*Кадры) : 0.261
    Размер потока : 2, 81 Гбайт (81%)
    Библиотека кодирования : x264 core 146 r2538 121396c
    Настройки программы : cabac=1/ref=11/deblock=1: -3: -3/analyse=0x3: 0x133/me=umh/subme=10/psy=1/psy_rd=1.00: 0.15/mixed_ref=1/me_range=32/chroma_me=1/trellis=2/8x8dct=1/cqm=0/deadzone=21, 11/fast_pskip=0/chroma_qp_offset=-3/threads=12/lookahead_threads=2/sliced_threads=0/nr=0/decimate=0/interlaced=0/bluray_compat=0/constrained_intra=0/bframes=8/b_pyramid=2/b_adapt=2/b_bias=0/direct=3/weightb=1/open_gop=0/weightp=2/keyint=240/keyint_min=23/scenecut=40/intra_refresh=0/rc_lookahead=40/rc=2pass/mbtree=0/bitrate=4285/ratetol=1.0/qcomp=0.60/qpmin=0/qpmax=69/qpstep=4/cplxblur=20.0/qblur=0.5/vbv_maxrate=50000/vbv_bufsize=62500/nal_hrd=none/filler=0/ip_ratio=1.40/pb_ratio=1.30/aq=3: 0.90
    Язык : English
    Default : Да
    Forced : Нет
    Аудио #1
    Идентификатор : 2
    Формат : AC-3
    Формат/Информация : Audio Coding 3
    Расширение режима : CM (complete main)
    Параметр Endianness формата : Big
    Идентификатор кодека : A_AC3
    Продолжительность : 1 ч. 36 м.
    Вид битрейта : Постоянный
    Битрейт : 448 Кбит/сек
    Каналы : 6 каналов
    Расположение каналов : Front: L C R, Side: L R, LFE
    Частота : 48, 0 КГц
    Битовая глубина : 16 бит
    Метод сжатия : С потерями
    Задержка видео : 500 мс.
    Размер потока : 308 Мбайт (9%)
    Заголовок : Профессиональный многоголосый (Paradox Omskbird records)
    Язык : Russian
    Default : Да
    Forced : Нет
    Аудио #2
    Идентификатор : 3
    Формат : AC-3
    Формат/Информация : Audio Coding 3
    Расширение режима : CM (complete main)
    Параметр Endianness формата : Big
    Идентификатор кодека : A_AC3
    Продолжительность : 1 ч. 36 м.
    Вид битрейта : Постоянный
    Битрейт : 448 Кбит/сек
    Каналы : 6 каналов
    Расположение каналов : Front: L C R, Side: L R, LFE
    Частота : 48, 0 КГц
    Битовая глубина : 16 бит
    Метод сжатия : С потерями
    Задержка видео : 4 с. 600 мс.
    Размер потока : 308 Мбайт (9%)
    Язык : English
    Default : Нет
    Forced : Нет
    Текст
    Идентификатор : 4
    Формат : UTF-8
    Идентификатор кодека : S_TEXT/UTF8
    Идентификатор кодека/Информация : UTF-8 Plain Text
    Язык : English
    Default : Да
    Forced : Нет
    Меню
    00: 00: 00.000 : : Chapter 1
    00: 08: 13.034 : : Chapter 2
    00: 15: 14.663 : : Chapter 3
    00: 22: 38.023 : : Chapter 4
    00: 30: 02.175 : : Chapter 5
    00: 38: 35.354 : : Chapter 6
    00: 47: 39.481 : : Chapter 7
    00: 53: 04.931 : : Chapter 8
    01: 02: 03.970 : : Chapter 9
    01: 08: 57.591 : : Chapter 10
    01: 17: 30.020 : : Chapter 11
    01: 25: 55.984 : : Chapter 12

    Скриншоты:


    Онлайн видео Восставшие мертвецы: Конец игры


    Размер скачиваемого торрента: 3.48 GB (3736572859 Bytes)

    Восставшие мертвецы: Конец игры/Dead Rising: Endgame (2016) BDRip 720p от k.e.n | L
    загрузка...
    Рейтинг →
     (голосов: 1, оценка 4/5, голосовать можно 1 раз )

    Другие торренты по теме:

  • Восставшие мертвецы / Dead Rising (2015) WEBRip | L1
  • Восставшие мертвецы / Dead Rising (2015) WEBRip | L2
  • Восставшие мертвецы / Dead Rising: Watchtower (2015) HDRip | L2
  • Восставшие мертвецы / Dead Rising: Watchtower / 2015 / ПМ / HDRip
  • Восставшие мертвецы: конец игры / Dead Rising: Endgame (2016) WEBRip | L
  • Восставшие мертвецы: конец игры / Dead Rising: Endgame (2016) WEBRip 1080p | L
  • Восставшие мертвецы: конец игры / Dead Rising: Endgame (2016) WEBRip от Portablius | L
  • Восставшие мертвецы: конец игры / Dead Rising: Endgame (2016) BDRip 1080p | L


    • Комментарии (0):

      Информация

      Информация

        Посетители, находящиеся в группе Гости, не могут оставлять комментарии в данной новости.

        ↓ Меню



        ↓ Опрос

        А Вы добавили сайт в закладки?
        Да
        Не


        Top 10 за месяц (Фильмы)