.
Авторизация | Регистрация
Хочешь лучшие торренты? Добавь свой email!
Добавить
» » Мышиная охота / Mousehunt (1997) WEBRip 1080p | D, P, A скачать торрент бесплатно




    Мышиная охота / Mousehunt (1997) WEBRip 1080p | D, P, A скачать торрент бесплатно

    Опубликовал: Админ | Дата: 4-11-2016, 05:00 | Просмотров: 60



    Детально о кино
    Русское название: Мышиная охота
    Русское название в мировом прокате: Mousehunt
    Создали в: 1997
    Категория жанра: комедия
    Главный режиссер: Гор Вербински

    Актеры
    Натан Лейн, Ли Эванс, Вики Льюис, Мори Чайкин, Эрик Кристмас, Майкл Джитер, Кристофер Уокен, Дебра Кристофферсон, Камилла Сёэберг, Йен Эберкромби

    Сюжет фильма

    Два брата по наследству становятся владельцами старинного особняка. Дом старый, но крепкий. И все бы ничего, но в нем обитает мышь, который портит своим присутствием все удовольствие от приобретения. Братья решают, во что бы то ни стало, избавиться от непрошеного соседа.

    Снималось в: США
    Время просмотра: 01: 37: 34
    Перевод текста: Профессиональный (дублированный) Ист-Вест + Профессиональный (многоголосый, закадровый) Премьер Мультимедиа + Профессиональный (многоголосый, закадровый) Премьер Видео Фильм + Авторский (одноголосый, закадровый) А.Гаврилов + Авторский (одноголосый, закадровый) В.Котов + Авторский (одноголосый, закадровый) А.Кашкин
    Файл
    Тип видео: Matroska
    Качество фильма: WEBRip 1080p
    Информация о видео: 1920x1080 at 23.976 fps, x264@L4, ~11200 kbps avg
    Информация о звуке#1: Russian: 48 kHz, AC3, 2/0 (L, R) ch, ~224 kbps|Дубляж, Ист-Вест|
    Информация о звуке#2: Russian: 48 kHz, AC3, 3/2 (L, C, R, l, r) + LFE ch, ~384 kbps|Многоголосый закадровый, Премьер Мультимедиа|
    Информация о звуке#3: Russian: 48 kHz, AC3, 2/0 (L, R) ch, ~192 kbps|Многоголосый закадровый, Премьер Видео Фильм|
    Информация о звуке#4: Russian: 48 kHz, E-AC3, 3/2 (L, C, R, l, r) + LFE ch, ~640 kbps|Авторский, А.Гаврилов|
    Информация о звуке#5: Russian: 48 kHz, E-AC3, 3/2 (L, C, R, l, r) + LFE ch, ~640 kbps|Авторский, В.Котов|
    Информация о звуке#6: Russian: 48 kHz, AC3, 2/0 (L, R) ch, ~192 kbps|Авторский, А.Кашкин|
    Информация о звуке#7: English: 48 kHz, E-AC3, 3/2 (L, C, R, l, r) + LFE ch, ~640 kbps
    Субтитры: Russian, English
    ***Сохранены и подписаны оригинальные главы .
    ***За дубляж спасибо: xfiles. За оцифровку VHS от Премьер Видео Фильм спасибо: серый75. За синхронизацию 1, 2, 3 и 6 дорожки спасибо: Dreven.
    ***А.Гаврилов и В.Котов собраны с чистого голоса. Заказ перевода В.Котова - Pr0peLLer. Работа со звуком - Skazhutin.
    ***В дорожках Премьер Мультимедиа и Премьер Видео Фильм перевод один и тот же, голоса разные.
    ***Cборка - igrok2012.
    MI
    General
    Unique ID : 238236710333358974809589182022217975848 (0xB33AB8AF86F61843B8E4BFCCE41D4828)
    Complete name : Mousehunt.1997.1080p.WEB-DL.6xRus.Eng.x264.mkv
    Format : Matroska
    Format version : Version 2
    File size : 9.83 GiB
    Duration : 1h 37mn
    Overall bit rate mode : Variable
    Overall bit rate : 14.4 Mbps
    Movie name : Mousehunt.1997 | igrok2012
    Encoded date : UTC 2016-11-03 17: 23: 18
    Writing application : mkvmerge v8.3.0 (;Over the Horizon;) 64bit
    Writing library : libebml v1.3.1 + libmatroska v1.4.2
    Cover : Yes
    Attachments : cover.jpg
    Video
    ID : 1
    Format : AVC
    Format/Info : Advanced Video Codec
    Format profile : High@L4
    Format settings, CABAC : Yes
    Format settings, ReFrames : 4 frames
    Codec ID : V_MPEG4/ISO/AVC
    Duration : 1h 37mn
    Bit rate mode : Variable
    Bit rate : 11.2 Mbps
    Maximum bit rate : 15.0 Mbps
    Width : 1 920 pixels
    Height : 1 080 pixels
    Display aspect ratio : 16: 9
    Frame rate mode : Constant
    Frame rate : 23.976 (24000/1001) fps
    Color space : YUV
    Chroma subsampling : 4: 2: 0
    Bit depth : 8 bits
    Scan type : Progressive
    Bits/(Pixel*Frame) : 0.226
    Stream size : 7.65 GiB (78%)
    Writing library : x264 core 148 r2623 d5b2374
    Encoding settings : cabac=1/ref=4/deblock=1: -1: -1/analyse=0x3: 0x133/me=umh/subme=9/psy=1/psy_rd=1.00: 0.15/mixed_ref=1/me_range=24/chroma_me=1/trellis=2/8x8dct=1/cqm=0/deadzone=21, 11/fast_pskip=1/chroma_qp_offset=-3/threads=34/lookahead_threads=5/sliced_threads=0/nr=150/decimate=1/interlaced=0/bluray_compat=0/constrained_intra=0/bframes=8/b_pyramid=2/b_adapt=2/b_bias=0/direct=3/weightb=1/open_gop=0/weightp=2/keyint=120/keyint_min=61/scenecut=0/intra_refresh=0/rc_lookahead=120/rc=crf/mbtree=1/crf=18.0/qcomp=0.60/qpmin=0/qpmax=69/qpstep=4/vbv_maxrate=15000/vbv_bufsize=31250/crf_max=0.0/nal_hrd=vbr/filler=0/ip_ratio=1.40/aq=3: 1.00
    Default : Yes
    Forced : No
    Color range : Limited
    Color primaries : BT.709
    Transfer characteristics : BT.709
    Matrix coefficients : BT.709
    Audio #1
    ID : 2
    Format : AC-3
    Format/Info : Audio Coding 3
    Mode extension : CM (complete main)
    Format settings, Endianness : Big
    Codec ID : A_AC3
    Duration : 1h 37mn
    Bit rate mode : Constant
    Bit rate : 224 Kbps
    Channel(s) : 2 channels
    Channel positions : Front: L R
    Sampling rate : 48.0 KHz
    Frame rate : 31.250 fps (1536 spf)
    Compression mode : Lossy
    Stream size : 156 MiB (2%)
    Title : Дубляж, Ист-Вест
    Language : Russian
    Default : Yes
    Forced : No
    Audio #2
    ID : 3
    Format : AC-3
    Format/Info : Audio Coding 3
    Mode extension : CM (complete main)
    Format settings, Endianness : Big
    Codec ID : A_AC3
    Duration : 1h 37mn
    Bit rate mode : Constant
    Bit rate : 384 Kbps
    Channel(s) : 6 channels
    Channel positions : Front: L C R, Side: L R, LFE
    Sampling rate : 48.0 KHz
    Frame rate : 31.250 fps (1536 spf)
    Compression mode : Lossy
    Stream size : 268 MiB (3%)
    Title : Многоголосый закадровый, Премьер Мультимедиа
    Language : Russian
    Default : No
    Forced : No
    Audio #3
    ID : 4
    Format : AC-3
    Format/Info : Audio Coding 3
    Mode extension : CM (complete main)
    Format settings, Endianness : Big
    Codec ID : A_AC3
    Duration : 1h 37mn
    Bit rate mode : Constant
    Bit rate : 192 Kbps
    Channel(s) : 2 channels
    Channel positions : Front: L R
    Sampling rate : 48.0 KHz
    Frame rate : 31.250 fps (1536 spf)
    Compression mode : Lossy
    Stream size : 134 MiB (1%)
    Title : Многоголосый закадровый, Премьер Видео Фильм
    Language : Russian
    Default : No
    Forced : No
    Audio #4
    ID : 5
    Format : E-AC-3
    Format/Info : Audio Coding 3
    Format settings, Endianness : Big
    Codec ID : A_EAC3
    Duration : 1h 37mn
    Bit rate mode : Constant
    Bit rate : 640 Kbps
    Channel(s) : 6 channels
    Channel positions : Front: L C R, Side: L R, LFE
    Sampling rate : 48.0 KHz
    Frame rate : 187.500 fps (256 spf)
    Compression mode : Lossy
    Stream size : 447 MiB (4%)
    Title : Одноголосый закадровый, А. Гаврилов
    Language : Russian
    Default : No
    Forced : No
    Audio #5
    ID : 6
    Format : E-AC-3
    Format/Info : Audio Coding 3
    Format settings, Endianness : Big
    Codec ID : A_EAC3
    Duration : 1h 37mn
    Bit rate mode : Constant
    Bit rate : 640 Kbps
    Channel(s) : 6 channels
    Channel positions : Front: L C R, Side: L R, LFE
    Sampling rate : 48.0 KHz
    Frame rate : 187.500 fps (256 spf)
    Compression mode : Lossy
    Stream size : 447 MiB (4%)
    Title : Одноголосый закадровый, В. Котов
    Language : Russian
    Default : No
    Forced : No
    Audio #6
    ID : 7
    Format : AC-3
    Format/Info : Audio Coding 3
    Mode extension : CM (complete main)
    Format settings, Endianness : Big
    Codec ID : A_AC3
    Duration : 1h 37mn
    Bit rate mode : Constant
    Bit rate : 192 Kbps
    Channel(s) : 2 channels
    Channel positions : Front: L R
    Sampling rate : 48.0 KHz
    Frame rate : 31.250 fps (1536 spf)
    Compression mode : Lossy
    Stream size : 134 MiB (1%)
    Title : Одноголосый закадровый, А. Кашкин
    Language : Russian
    Default : No
    Forced : No
    Audio #7
    ID : 8
    Format : E-AC-3
    Format/Info : Audio Coding 3
    Format settings, Endianness : Big
    Codec ID : A_EAC3
    Duration : 1h 37mn
    Bit rate mode : Constant
    Bit rate : 640 Kbps
    Channel(s) : 6 channels
    Channel positions : Front: L C R, Side: L R, LFE
    Sampling rate : 48.0 KHz
    Frame rate : 187.500 fps (256 spf)
    Compression mode : Lossy
    Stream size : 447 MiB (4%)
    Language : English
    Default : No
    Forced : No
    Text #1
    ID : 9
    Format : UTF-8
    Codec ID : S_TEXT/UTF8
    Codec ID/Info : UTF-8 Plain Text
    Language : Russian
    Default : No
    Forced : No
    Text #2
    ID : 10
    Format : UTF-8
    Codec ID : S_TEXT/UTF8
    Codec ID/Info : UTF-8 Plain Text
    Title : Е.Клавдиенко
    Language : Russian
    Default : No
    Forced : No
    Text #3
    ID : 11
    Format : UTF-8
    Codec ID : S_TEXT/UTF8
    Codec ID/Info : UTF-8 Plain Text
    Language : English
    Default : No
    Forced : No
    Text #4
    ID : 12
    Format : UTF-8
    Codec ID : S_TEXT/UTF8
    Codec ID/Info : UTF-8 Plain Text
    Title : SDH
    Language : English
    Default : No
    Forced : No
    Menu
    00: 00: 00.000 : en: The Funeral (Main Titles)
    00: 06: 50.000 : en: A Date with the Mayor
    00: 09: 35.000 : en: The Strng
    00: 16: 29.000 : en: What a Dump
    00: 21: 28.000 : en: The Missing Larue
    00: 25: 27.000 : en: A Single Vermin
    00: 30: 37.000 : en: Sweet Dreams
    00: 34: 18.000 : en: Never Underestimate Your Opponent
    00: 40: 14.000 : en: Catzilla
    00: 44: 46.000 : en: Ernie Smells a Rat
    00: 48: 12.000 : en: Caesar
    00: 51: 53.000 : en: All Strung Out
    00: 57: 22.000 : en: What a Drag
    01: 02: 06.000 : en: What a Gas
    01: 06: 45.000 : en: Shoot! Shoot!
    01: 09: 03.000 : en: Sibling Rivalry
    01: 14: 13.000 : en: The Auction
    01: 24: 53.000 : en: Going... Going... Gone!
    01: 29: 21.000 : en: Strng Cheese
    01: 32: 48.000 : en: End Titles
    Скриншоты



    Онлайн видео Мышиная охота


    Размер скачиваемого торрента: 9.83 GB (10555396138 Bytes)

    Мышиная охота/Mousehunt (1997) WEBRip 1080p | D, P, A
    загрузка...
    Рейтинг →
     (голосов: 1, оценка 4/5, голосовать можно 1 раз )

    Другие торренты по теме:

  • OST - Мышиная охота / MouseHunt (1997) MP3
  • Мышиная охота / Mousehunt (1997) HDTVRip-AVC | D
  • Мышиная охота / Mousehunt (1997) HDTVRip-AVC | D, P, P2, A
  • Мышиная охота / Mousehunt (1997) HDTVRip | КПК | D, P, A


    • Комментарии (0):

      Информация

      Информация

        Посетители, находящиеся в группе Гости, не могут оставлять комментарии в данной новости.

        ↓ Меню



        ↓ Опрос

        А Вы добавили сайт в закладки?
        Да
        Не


        Top 10 за месяц (Фильмы)