.
Авторизация | Регистрация
Хочешь лучшие торренты? Добавь свой email!
Добавить
» » Крейсер / USS Indianapolis: Men of Courage (2016) WEB-DLRip-AVC | iTunes скачать торрент бесплатно




    Крейсер / USS Indianapolis: Men of Courage (2016) WEB-DLRip-AVC | iTunes скачать торрент бесплатно

    Опубликовал: Админ | Дата: 14-10-2016, 05:01 | Просмотров: 78



    Детально о кино
    Русское название: Крейсер
    Русское название в мировом прокате: USS Indianapolis: Men of Courage
    Создали в: 2016
    Категория жанра: Боевик, военный
    Главный режиссер: Марио Ван Пиблз

    Актеры
    Николас Кейдж, Том Сайзмор, Томас Джейн, Мэтт Лантер, Вероника Розати, Коуди Уокер, Брайан Прэсли, Эмили Теннант, Каллард Харрис, Эмили Мари Палмер

    Сюжет фильма

    Лето 1945 года. До конца Второй мировой оставались считанные недели... Крейсер ВМС США Индианополис доставил на американскую военную базу на острове Тиниан боеголовку атомной бомбы. На обратном рейде корабль был торпедирован японцами и пошел ко дну. SOS! капитана Маквэя не был услышан. И живые позавидовали мертвым: палящее солнце и зубы акул, жажда и галлюцинации, безумие и адские муки отчаяния...

    Снималось в: США
    Киностудия: Hannibal Pictures, USS Indianapolis Production
    Время просмотра: 02: 04: 34
    Перевод текста: Дублированный | iTunes
    Файл
    Тип видео: MKV
    Качество фильма: WEB-DLRip-AVC
    Информация о видео: High@L4.1, 912x380, 25 fps, ~1188 kbps
    Информация о звуке: AC3, 6 ch, 384 kbps
    Субтитры: Нет
    M/I
    General
    Unique ID : 114968292382449458418035896213766499367 (0x567E1673356220E4F33BF68CBADD6C27)
    Complete name : F: Крейсер.(2016).WEB-DLRip-AVC.-=DoMiNo=-.mkv
    Format : Matroska
    Format version : Version 4/Version 2
    File size : 1.37 GiB
    Duration : 2 h 4 min
    Overall bit rate : 1 576 kb/s
    Movie name : Крейсер
    Deion : Лето 1945 года. До конца Второй мировой оставались считанные недели? Крейсер ВМС США Индианополис доставил на американскую военную базу на острове Тиниан боеголовку атомной бомбы. На обратном рейде корабль был торпедирован японцами и пошел ко дну. SOS! капитана Маквэя не был услышан. И живые позавидовали мертвым: палящее солнце и зубы акул, жажда и галлюцинации, безумие и адские муки отчаяния?
    Writing application : XviD4PSP 7.0.304 DAILY
    Writing library : Lavf57.41.100/Lavf57.41.100
    Cover : Yes
    Attachments : cover.jpg
    ACTORS : Николас Кейдж, Том Сайзмор, Томас Джейн, Мэтт Лантер, Вероника Розати, Коуди Уокер, Брайан Прэсли, Эмили Теннант, Каллард Харрис, Эмили Мари Палмер, Александр Рахленко, Александр Носков, Александр Хошабаев
    COUNTRY : США
    DATE : 2016
    DIRECTOR : Марио Ван Пиблз
    ENCODING_INFO : MATROSKA, WEBM MKV/H264 X264 VBR-2P 1188kbps Произвольный/AC3 COPY
    GENRE : боевик, военный
    HD_VIDEO : 1
    IMDB_RATING : 5.20
    ITUNEXTC : mpaa|R|400|
    MEDIA_TYPE : 9
    ORIGINAL_TITLE : USS Indianapolis: Men of Courage
    PRODUCER : Майкл Мендельсон, Ричард Рионда Дель Кастро, Мартин Дж. Бараб
    RATING : 5.278
    WRITER : Кэм Кэннон, Ричард Рионда Дель Кастро
    Video
    ID : 1
    Format : AVC
    Format/Info : Advanced Video Codec
    Format profile : High@L4.1
    Format settings, CABAC : Yes
    Format settings, ReFrames : 12 frames
    Codec ID : V_MPEG4/ISO/AVC
    Duration : 2 h 4 min
    Bit rate : 1 188 kb/s
    Width : 912 pixels
    Height : 380 pixels
    Display aspect ratio : 2.40: 1
    Frame rate mode : Constant
    Frame rate : 25.000 FPS
    Color space : YUV
    Chroma subsampling : 4: 2: 0
    Bit depth : 8 bits
    Scan type : Progressive
    Bits/(Pixel*Frame) : 0.137
    Stream size : 1.01 GiB (74%)
    Title : USS Indianapolis: Men of Courage_RIP_-=DoMiNo=-
    Writing library : x264 core 148 r2721M 72d53ab
    Encoding settings : cabac=1/ref=12/deblock=1: -3: -3/analyse=0x3: 0x133/me=umh/subme=11/psy=1/psy_rd=1.00: 0.10/mixed_ref=1/me_range=32/chroma_me=1/trellis=2/8x8dct=1/cqm=0/deadzone=21, 11/fast_pskip=1/chroma_qp_offset=-3/threads=5/lookahead_threads=1/sliced_threads=0/nr=0/decimate=1/interlaced=0/bluray_compat=0/constrained_intra=0/bframes=11/b_pyramid=2/b_adapt=2/b_bias=0/direct=3/weightb=1/open_gop=0/weightp=2/keyint=250/keyint_min=25/scenecut=40/intra_refresh=0/rc_lookahead=60/rc=2pass/mbtree=1/bitrate=1188/ratetol=1.0/qcomp=0.70/qpmin=0/qpmax=69/qpstep=4/cplxblur=20.0/qblur=0.5/ip_ratio=1.40/aq=1: 1.00
    Language : Russian
    Default : Yes
    Forced : No
    Color range : Limited
    Color primaries : BT.709
    Transfer characteristics : BT.709
    Matrix coefficients : BT.709
    DURATION : 02: 04: 34.480000000
    Audio
    ID : 2
    Format : AC-3
    Format/Info : Audio Coding 3
    Mode extension : CM (complete main)
    Format settings, Endianness : Big
    Codec ID : A_AC3
    Duration : 2 h 4 min
    Bit rate mode : Constant
    Bit rate : 384 kb/s
    Channel(s) : 6 channels
    Channel positions : Front: L C R, Side: L R, LFE
    Sampling rate : 48.0 kHz
    Frame rate : 31.250 FPS (1536 spf)
    Bit depth : 32 bits
    Compression mode : Lossy
    Stream size : 342 MiB (24%)
    Title : DUB_iTunes
    Language : Russian
    Default : Yes
    Forced : No
    DURATION : 02: 04: 34.528000000
    Menu
    00: 00: 00.000 : : Р“Рава 1
    00: 06: 47.880 : : Р“Рава 2
    00: 15: 29.120 : : Р“Рава 3
    00: 23: 52.280 : : Р“Рава 4
    00: 28: 41.840 : : Р“Рава 5
    00: 34: 03.840 : : Р“Рава 6
    00: 41: 05.760 : : Р“Рава 7
    00: 51: 06.920 : : Р“Рава 8
    00: 57: 08.280 : : Р“Рава 9
    01: 03: 45.160 : : Р“Рава 10
    01: 10: 45.520 : : Р“Рава 11
    01: 18: 32.200 : : Р“Рава 12
    01: 25: 52.000 : : Р“Рава 13
    01: 32: 05.600 : : Р“Рава 14
    01: 38: 51.760 : : Р“Рава 15
    01: 49: 20.880 : : Р“Рава 16
    01: 53: 10.120 : : Р“Рава 17
    Скриншоты


    Онлайн видео Крейсер


    Размер скачиваемого торрента: 1.37 GB (1472642627 Bytes)

    Крейсер/USS Indianapolis: Men of Courage (2016) WEB-DLRip-AVC | iTunes
    загрузка...
    Рейтинг →
     (голосов: 1, оценка 4/5, голосовать можно 1 раз )

    Другие торренты по теме:

  • Крейсер / USS Indianapolis: Men of Courage (2016) WEBRip | Line
  • Крейсер / USS Indianapolis: Men of Courage (2016) WEB-DL 1080p | iTunes
  • Крейсер / USS Indianapolis: Men of Courage (2016) WEB-DLRip-AVC от R.G.Resident | iTunes
  • Крейсер / USS Indianapolis: Men of Courage (2016) WEB-DLRip от Scarabey | iTunes
  • Крейсер / USS Indianapolis: Men of Courage (2016) WEB-DLRip от Generalfilm | КПК | iTunes
  • Крейсер / USS Indianapolis: Men of Courage (2016) WEB-DLRip от MegaPeer | iTunes
  • Крейсер / USS Indianapolis: Men of Courage / 2016 / ДБ / WEB-DLRip (AVC)
  • Крейсер / USS Indianapolis: Men of Courage / 2016 / ДБ / WEB-DL (720p)


    • Комментарии (0):

      Информация

      Информация

        Посетители, находящиеся в группе Гости, не могут оставлять комментарии в данной новости.

        ↓ Меню



        ↓ Опрос

        А Вы добавили сайт в закладки?
        Да
        Не


        Top 10 за месяц (Фильмы)