.
Авторизация | Регистрация
Хочешь лучшие торренты? Добавь свой email!
Добавить
» » Коммуна / Kollektivet (2016) BDRip 1080p | iTunes скачать торрент бесплатно




    Коммуна / Kollektivet (2016) BDRip 1080p | iTunes скачать торрент бесплатно

    Опубликовал: Админ | Дата: 13-10-2016, 05:02 | Просмотров: 64



    Детально о кино
    Русское название: Коммуна
    Русское название в мировом прокате: Kollektivet
    Создали в: 2016
    Категория жанра: Драма, семейный
    Главный режиссер: Томас Винтерберг

    Актеры
    Ульрих Томсен, Фарес Фарес, Трине Дюрхольм, Хелена Рейнгорд Ньюманн, Джули Аньет Ванг, Ларс Ранте, Марта Софи Вольстром Хансен, Оле Дюпон, Маунус Миллан, Энн Грай Хенингсен

    Сюжет фильма

    В огромной вилле, расположенной в фешенебельном районе Копенгагена, Эрик и его жена Анна, воплощая давнюю мечту, создают коммуну близких по духу людей, готовых жить под одной крышей. Общие интересы, беседы, вечеринки полны эйфории и дарят ощущение подлинного единства. До тех пор, пока Эрик не приводит в дом свою новую возлюбленную…

    Снималось в: Дания, Швеция, Нидерланды
    Киностудия: Danmarks Radio (DR), Det Danske Filminstitut, Film i V?st, Toolbox Film
    Время просмотра: 01: 51: 42
    Перевод текста: Дублированный iTunes
    Файл
    Кодек для видео: MPEG-4 AVC
    Качество фильма: BDRip (1080p)
    Информация о видео: 9700 Кбит/с, 1920x816
    Информация о звуке: Русский (AC3, 6 ch, 384 Кбит/с), датский (DTS, 6 ch, 1509 Кбит/с)
    Субтитры: Датские
    Релиз без рекламы.
    Семпл
    MI

    General
    Unique ID : 199564084834663837581326903922299198086 (0x9622A509CBE19D2291E6FD3B32675A86)
    Complete name : D: Kommyna.2O16.D.BDRip.1080p.mkv
    Format : Matroska
    Format version : Version 4/Version 2
    File size : 9.04 GiB
    Duration : 1 h 51 min
    Overall bit rate : 11.6 Mb/s
    Encoded date : UTC 2016-10-05 14: 49: 22
    Writing application : mkvmerge v6.8.0 (;Theme for Great Cities;) 64bit built on Mar 2 2014 21: 34: 26
    Writing library : libebml v1.3.0 + libmatroska v1.4.1
    Video
    ID : 1
    Format : AVC
    Format/Info : Advanced Video Codec
    Format profile : High@L4.1
    Format settings, CABAC : Yes
    Format settings, ReFrames : 5 frames
    Codec ID : V_MPEG4/ISO/AVC
    Duration : 1 h 51 min
    Bit rate : 9 695 kb/s
    Width : 1 920 pixels
    Height : 816 pixels
    Display aspect ratio : 2.35: 1
    Frame rate mode : Constant
    Frame rate : 24.000 FPS
    Color space : YUV
    Chroma subsampling : 4: 2: 0
    Bit depth : 8 bits
    Scan type : Progressive
    Bits/(Pixel*Frame) : 0.258
    Stream size : 7.38 GiB (82%)
    Writing library : x264 core 148 r2692 64f4e24
    Encoding settings : cabac=1/ref=5/deblock=1: 0: 0/analyse=0x3: 0x113/me=umh/subme=8/psy=1/psy_rd=1.00: 0.00/mixed_ref=1/me_range=16/chroma_me=1/trellis=1/8x8dct=1/cqm=0/deadzone=21, 11/fast_pskip=1/chroma_qp_offset=-2/threads=12/lookahead_threads=2/sliced_threads=0/nr=0/decimate=1/interlaced=0/bluray_compat=0/constrained_intra=0/bframes=3/b_pyramid=2/b_adapt=2/b_bias=0/direct=3/weightb=1/open_gop=0/weightp=2/keyint=240/keyint_min=24/scenecut=40/intra_refresh=0/rc_lookahead=50/rc=2pass/mbtree=1/bitrate=9695/ratetol=1.0/qcomp=0.60/qpmin=0/qpmax=69/qpstep=4/cplxblur=20.0/qblur=0.5/ip_ratio=1.40/aq=1: 1.00
    Language : Danish
    Default : Yes
    Forced : No
    Audio #1
    ID : 2
    Format : AC-3
    Format/Info : Audio Coding 3
    Mode extension : CM (complete main)
    Format settings, Endianness : Big
    Codec ID : A_AC3
    Duration : 1 h 51 min
    Bit rate mode : Constant
    Bit rate : 384 kb/s
    Channel(s) : 6 channels
    Channel positions : Front: L C R, Side: L R, LFE
    Sampling rate : 48.0 kHz
    Frame rate : 31.250 FPS (1536 spf)
    Compression mode : Lossy
    Stream size : 307 MiB (3%)
    Language : Russian
    Default : Yes
    Forced : Yes
    Audio #2
    ID : 3
    Format : DTS
    Format/Info : Digital Theater Systems
    Mode : 16
    Format settings, Endianness : Big
    Codec ID : A_DTS
    Duration : 1 h 51 min
    Bit rate mode : Constant
    Bit rate : 1 509 kb/s
    Channel(s) : 6 channels
    Channel positions : Front: L C R, Side: L R, LFE
    Sampling rate : 48.0 kHz
    Frame rate : 93.750 FPS (512 spf)
    Bit depth : 24 bits
    Compression mode : Lossy
    Stream size : 1.18 GiB (13%)
    Language : Danish
    Default : No
    Forced : No
    Text #1
    ID : 4
    Format : UTF-8
    Codec ID : S_TEXT/UTF8
    Codec ID/Info : UTF-8 Plain Text
    Title : Danish
    Language : Danish
    Default : No
    Forced : No
    Text #2
    ID : 5
    Format : UTF-8
    Codec ID : S_TEXT/UTF8
    Codec ID/Info : UTF-8 Plain Text
    Title : Danish SDH
    Language : Danish
    Default : No
    Forced : No
    Menu
    00: 00: 00.000 : da: 00: 00: 00.000
    00: 09: 59.542 : da: 00: 09: 59.542
    00: 20: 00.000 : da: 00: 20: 00.000
    00: 29: 59.958 : da: 00: 29: 59.958
    00: 39: 59.792 : da: 00: 39: 59.792
    00: 49: 59.542 : da: 00: 49: 59.542
    00: 59: 59.625 : da: 00: 59: 59.625
    01: 09: 59.583 : da: 01: 09: 59.583
    01: 19: 59.792 : da: 01: 19: 59.792
    01: 29: 59.583 : da: 01: 29: 59.583
    01: 40: 00.000 : da: 01: 40: 00.000
    Скриншоты




    Онлайн видео Коммуна


    Размер скачиваемого торрента: 9.04 GB (9704873947 Bytes)

    Коммуна/Kollektivet (2016) BDRip 1080p | iTunes
    загрузка...
    Рейтинг →
     (голосов: 1, оценка 4/5, голосовать можно 1 раз )

    Другие торренты по теме:

  • Коммуна / Kollektivet (2016)
  • Коммуна / Kollektivet (2016) HDRip от MegaPeer | iTunes


    • Комментарии (0):

      Информация

      Информация

        Посетители, находящиеся в группе Гости, не могут оставлять комментарии в данной новости.

        ↓ Меню



        ↓ Опрос

        А Вы добавили сайт в закладки?
        Да
        Не


        Top 10 за месяц (Фильмы)