.
Авторизация | Регистрация
Хочешь лучшие торренты? Добавь свой email!
Добавить
» » И гаснет свет... / Lights Out (2016) BDRip 720p от ExKinoRay | iTunes скачать торрент бесплатно




    И гаснет свет... / Lights Out (2016) BDRip 720p от ExKinoRay | iTunes скачать торрент бесплатно

    Опубликовал: Админ | Дата: 13-10-2016, 05:02 | Просмотров: 37



    Детально о кино
    Русское название: И гаснет свет...
    Русское название в мировом прокате: Lights Out
    Создали в: 2016
    Категория жанра: Ужасы
    Главный режиссер: Дэвид Ф. Сандберг

    Актеры
    Тереза Палмер, Гэбриел Бейтман, Александр ДиПерсиа, Билли Бёрк, Мария Белло, Алисия Вела-Бэйли, Энди Ошо, Роландо Бойс, Мария Расселл, Элизабет Пан
    О фильме:
    Когда Ребекка покинула родной дом, она думала, что её детские страхи остались позади. Ребенком она никогда не была уверена, что реально, а что нет, когда гас свет, и теперь её младший брат Мартин переживает те же необъяснимые и ужасные события, которые когда-то испытывали на прочность её рассудок и угрожали её безопасности. Пугающее нечто, таинственным образом привязанное к их матери Софи, появилось вновь. Но на этот раз Ребекка подбирается к разгадке истины, и уже не остается сомнений в том, что их жизни в опасности, как только будет погашен свет.

    Снималось в: США
    Киностудия: New Line Cinema
    Время просмотра: 01: 20: 55
    Перевод текста: Дублированный | iTunes
    Файл
    Кодек для видео: MPEG-4
    Качество фильма: BDRip 720p
    Информация о видео: 1280x534, 7880 Кbit/s, 23.976 fps
    Информация о звуке:
    Информация о звуке #01: 48 kHz, AC3, 5.1, 384 Kbps | Дублированный | iTunes |
    Информация о звуке #02: 48 kHz, DTS, 5.1, 1510 kbps | Оригинал |
    Субтитры: Русские, английские
    MI
    General
    Unique ID : 250364666795083652555722462845294584317 (0xBC5A7B1AEEE7F6BF855DC902597FA1FD)
    Complete name : H: VideoLights.Out.2016.BDRip.720p.ExKinoRay.mkv
    Format : Matroska
    Format version : Version 4/Version 2
    File size : 5.53 GiB
    Duration : 1 h 20 min
    Overall bit rate : 9 775 kb/s
    Encoded date : UTC 2016-10-12 09: 41: 36
    Writing application : mkvmerge v8.3.0 (;Over the Horizon;) 64bit
    Writing library : libebml v1.3.1 + libmatroska v1.4.2
    Video
    ID : 1
    Format : AVC
    Format/Info : Advanced Video Codec
    Format profile : High@L4.1
    Format settings, CABAC : Yes
    Format settings, ReFrames : 12 frames
    Codec ID : V_MPEG4/ISO/AVC
    Duration : 1 h 20 min
    Bit rate : 7 879 kb/s
    Width : 1 280 pixels
    Height : 534 pixels
    Display aspect ratio : 2.40: 1
    Frame rate mode : Constant
    Frame rate : 23.976 (24000/1001) FPS
    Color space : YUV
    Chroma subsampling : 4: 2: 0
    Bit depth : 8 bits
    Scan type : Progressive
    Bits/(Pixel*Frame) : 0.481
    Stream size : 4.46 GiB (81%)
    Writing library : x264 core 148 r2721kMod 72d53ab
    Encoding settings : cabac=1/ref=12/deblock=1: -3: -3/analyse=0x3: 0x133/me=umh/subme=10/psy=1/fade_compensate=0.00/psy_rd=1.00: 0.00/mixed_ref=1/me_range=24/chroma_me=1/trellis=2/8x8dct=1/cqm=0/deadzone=21, 11/fast_pskip=0/chroma_qp_offset=-2/threads=56/lookahead_threads=4/sliced_threads=0/nr=0/decimate=0/interlaced=0/bluray_compat=0/constrained_intra=0/fgo=0/bframes=9/b_pyramid=2/b_adapt=2/b_bias=0/direct=3/weightb=1/open_gop=0/weightp=2/keyint=250/keyint_min=23/scenecut=40/intra_refresh=0/rc_lookahead=60/rc=crf/mbtree=0/crf=16.5000/qcomp=0.66/qpmin=0/qpmax=69/qpstep=4/vbv_maxrate=62500/vbv_bufsize=78125/crf_max=0.0/nal_hrd=none/filler=0/ip_ratio=1.30/pb_ratio=1.20/aq=3: 0.77
    Language : English
    Default : Yes
    Forced : No
    Color range : Limited
    Matrix coefficients : BT.709
    Audio #1
    ID : 2
    Format : AC-3
    Format/Info : Audio Coding 3
    Mode extension : CM (complete main)
    Format settings, Endianness : Big
    Codec ID : A_AC3
    Duration : 1 h 20 min
    Bit rate mode : Constant
    Bit rate : 384 kb/s
    Channel(s) : 6 channels
    Channel positions : Front: L C R, Side: L R, LFE
    Sampling rate : 48.0 kHz
    Frame rate : 31.250 FPS (1536 spf)
    Compression mode : Lossy
    Delay relative to video : 1 s 0 ms
    Stream size : 222 MiB (4%)
    Title : iTunes
    Language : Russian
    Default : Yes
    Forced : No
    Audio #2
    ID : 3
    Format : DTS
    Format/Info : Digital Theater Systems
    Mode : 16
    Format settings, Endianness : Big
    Codec ID : A_DTS
    Duration : 1 h 20 min
    Bit rate mode : Constant
    Bit rate : 1 509 kb/s
    Channel(s) : 6 channels
    Channel positions : Front: L C R, Side: L R, LFE
    Sampling rate : 48.0 kHz
    Frame rate : 93.750 FPS (512 spf)
    Bit depth : 24 bits
    Compression mode : Lossy
    Stream size : 874 MiB (15%)
    Title : Original
    Language : English
    Default : No
    Forced : No
    Text #1
    ID : 4
    Format : UTF-8
    Codec ID : S_TEXT/UTF8
    Codec ID/Info : UTF-8 Plain Text
    Duration : 1 h 19 min
    Bit rate : 53 b/s
    Count of elements : 847
    Stream size : 31.2 KiB (0%)
    Title : Full
    Language : Russian
    Default : No
    Forced : No
    Text #2
    ID : 5
    Format : UTF-8
    Codec ID : S_TEXT/UTF8
    Codec ID/Info : UTF-8 Plain Text
    Duration : 1 h 14 min
    Bit rate : 34 b/s
    Count of elements : 789
    Stream size : 18.7 KiB (0%)
    Title : Full
    Language : English
    Default : No
    Forced : No
    Text #3
    ID : 6
    Format : UTF-8
    Codec ID : S_TEXT/UTF8
    Codec ID/Info : UTF-8 Plain Text
    Duration : 1 h 15 min
    Bit rate : 40 b/s
    Count of elements : 964
    Stream size : 22.5 KiB (0%)
    Title : SDH
    Language : English
    Default : No
    Forced : No
    Menu
    00: 00: 00.000 : en: 00: 00: 00.000
    00: 10: 01.559 : en: 00: 10: 01.559
    00: 21: 07.349 : en: 00: 21: 07.349
    00: 30: 12.936 : en: 00: 30: 12.936
    00: 40: 57.664 : en: 00: 40: 57.664
    00: 50: 38.285 : en: 00: 50: 38.285
    00: 58: 43.603 : en: 00: 58: 43.603
    01: 09: 54.190 : en: 01: 09: 54.190
    01: 16: 21.285 : en: 01: 16: 21.285


    Релиз подготовил: Автор релиза:

    Онлайн видео И гаснет свет...


    Размер скачиваемого торрента: 5.53 GB (5934751316 Bytes)

    И гаснет свет.../Lights Out (2016) BDRip 720p от ExKinoRay | iTunes
    загрузка...
    Рейтинг →
     (голосов: 1, оценка 4/5, голосовать можно 1 раз )

    Другие торренты по теме:

  • Когда гаснет свет / When the Lights Went Out (2012) BDRip-AVC | iPad
  • Когда гаснет свет / Te Zhong Jiu Yuan Ying Xiong (2014) HDRip | A скачать через торрент бесплатно
  • Когда гаснет свет / Te Zhong Jiu Yuan Ying Xiong / As the Light Goes Out (2014) BDRip 1080p от MediaClub | A скачать через торрент бесплатно
  • Когда гаснет свет / Jiu huo ying xiong (2014) HDRip от RG Orient Extreme | L1
  • И гаснет свет... / Lights Out (2016) WEB-DLRip | Line
  • И гаснет свет... / Lights Out (2016) HDRip от MegaPeer | iTunes
  • И гаснет свет... / Lights Out (2016) HDRip от MegaPeer | iTunes
  • И гаснет свет... / Lights Out (2016) WEB-DL 720p от ExKinoRay | iTunes


    • Комментарии (0):

      Информация

      Информация

        Посетители, находящиеся в группе Гости, не могут оставлять комментарии в данной новости.

        ↓ Меню



        ↓ Опрос

        А Вы добавили сайт в закладки?
        Да
        Не


        Top 10 за месяц (Фильмы)