.
Авторизация | Регистрация
Хочешь лучшие торренты? Добавь свой email!
Добавить
» » Доктор Чужой / Dr. Alien (1989) DVDRip от New-Team | A скачать торрент бесплатно




    Доктор Чужой / Dr. Alien (1989) DVDRip от New-Team | A скачать торрент бесплатно

    Опубликовал: Админ | Дата: 13-10-2016, 05:02 | Просмотров: 35


    She has the cure for growing pains...


    Снималось в: США
    Категория жанра: фантастика, комедия
    Создали в: 1989
    Время просмотра: 01: 23: 40
    Перевод текста: Авторский (одноголосый, закадровый)
    Оригинальная аудиодорожка: английский
    Субтитры подготовлены: нет
    Главный режиссер: Дэвид ДеКото/David DeCoteau

    Актеры
    Билли Джейн, Джуди Лэндерс, Оливия Бэраш, Стюарт Фрэткин, Рэймонд О’Коннор, Арлин Голонка, Джим Хэккет, Роберт Джейн, Джули Грей, Скотт Моррис...
    Описание: Доктор Аккерман, новая учительница биологии, так хорошо изменила внешность, что никто и не подозревает, что она на самом деле ученая — пришелец. Она экспериментирует на студенте-первокурснике Уэсли, быстро становящемся сексуальным магнитом, перед которым не может устоять ни одна девушка, в их числе и сама Доктор-пришелец…



    Исходник: DVD5 R1
    Тип релиза: DVDRip
    Контейнер: AVI
    Информация о видео: 688x528 (4: 3), 25 fps, XviD ~ 2290 kbps avg, 0.263 bit/pixel
    Информация о звуке: 48 kHz, АС3, 2 ch, 192.00 kbps
    Релиз подготовил:
    MediaInfo

    Общее
    Полное имя : Doktor.chuzhoy.1989.A.DVDRip_Youtracker_by_avproh.avi
    Формат : AVI
    Формат/Информация : Audio Video Interleave
    Размер файла : 1, 46 Гбайт
    Продолжительность : 1 ч. 23 м.
    Общий поток : 2491 Кбит/сек
    Программа кодирования : VirtualDubMod 1.5.10.3 (build 2550/release)
    Библиотека кодирования : VirtualDubMod build 2550/release
    Видео
    Идентификатор : 0
    Формат : MPEG-4 Visual
    Профиль формата : Advanced Simple@L5
    Параметр BVOP формата : 1
    Параметр QPel формата : Нет
    Параметр GMC формата : Без точки перехода
    Параметр матрицы формата : Выборочная
    Идентификатор кодека : XVID
    Идентификатор кодека/Подсказка : XviD
    Продолжительность : 1 ч. 23 м.
    Битрейт : 2290 Кбит/сек
    Ширина : 688 пикселей
    Высота : 528 пикселей
    Соотношение сторон : 4: 3
    Частота кадров : 23, 976 кадра/сек
    Цветовое пространство : YUV
    Субдискретизация насыщенности : 4: 2: 0
    Битовая глубина : 8 бит
    Тип развёртки : Прогрессивная
    Метод сжатия : С потерями
    Бит/(Пиксели*Кадры) : 0.263
    Размер потока : 1, 34 Гбайт (92%)
    Библиотека кодирования : XviD 65
    Аудио
    Идентификатор : 1
    Формат : AC-3
    Формат/Информация : Audio Coding 3
    Расширение режима : CM (complete main)
    Параметр Endianness формата : Big
    Идентификатор кодека : 2000
    Продолжительность : 1 ч. 23 м.
    Вид битрейта : Постоянный
    Битрейт : 192 Кбит/сек
    Каналы : 2 канала
    Расположение каналов : Front: L R
    Частота : 48, 0 КГц
    Битовая глубина : 16 бит
    Метод сжатия : С потерями
    Размер потока : 115 Мбайт (8%)
    Выравнивание : Разделение по промежуткам
    Продолжительность промежутка : 42 мс. (1, 00 видеокадр)
    Время предзагрузки промежутка : 500 мс.

    Скриншоты



    Сравнение

    http://rutor.org/torrent/66875/doktor-chuzhoj_dr-alien-1989-dvdrip
    http://www.check2pic.ru/compare/24168

    Залил: avproh

    Онлайн видео Доктор Чужой


    Размер скачиваемого торрента: 1.46 GB (1564911616 Bytes)

    Доктор Чужой/Dr. Alien (1989) DVDRip от New-Team | A
    загрузка...
    Рейтинг →
     (голосов: 1, оценка 5/5, голосовать можно 1 раз )

    Другие торренты по теме:

  • Доктор на свободе (Доктор возвращается) / Doctor at Large (1957) DVDRip от egoleshik | P2
  • Шляхов Андрей – Доктор Данилов 11. Доктор Данилов в МЧС (2015) MP3
  • Доктор, доктор / Doctor Doctor (2016) WEB-DLRip | AlexFilm
  • Доктор, доктор / Doctor Doctor (2016) WEB-DLRip 1080p | AlexFilm
  • Шляхов Андрей – Доктор Данилов 03. Доктор Данилов в морге, или Невероятные будни патологоанатома (2017) MP3
  • Доктор, доктор / Doctor Doctor (2017) HDTV 720p | AlexFilm
  • Доктор, доктор / Doctor Doctor (2017) HDTVRip | AlexFilm
  • Доктор Кто / Doctor Who (2012) WEB-DLRip | BaibaKo


    • Комментарии (0):

      Информация

      Информация

        Посетители, находящиеся в группе Гости, не могут оставлять комментарии в данной новости.

        ↓ Меню



        ↓ Опрос

        А Вы добавили сайт в закладки?
        Да
        Не


        Top 10 за месяц (Фильмы)