.
Авторизация | Регистрация
Хочешь лучшие торренты? Добавь свой email!
Добавить
» » Простая история (2016) WEB-DL 720p скачать торрент бесплатно




    Простая история (2016) WEB-DL 720p скачать торрент бесплатно

    Опубликовал: Админ | Дата: 11-10-2016, 05:01 | Просмотров: 54



    Детально о кино
    Русское название в мировом прокате: Простая история
    Создали в: 2016
    Категория жанра: Боевик, военный, драма, мелодрама
    Главный режиссер: Виктор Татарский

    Актеры
    Сергей Марин, Анастасия Тюнина, Екатерина Проскурина, Михаил Елисеев, Евгений Сидихин, Юсуп Бахшиев, Евгений Добряков, Алексей Красноцветов, Дмитрий Быковский-Ромашов

    Сюжет фильма

    Вячеслав Воробьев — боец особого подразделения ОМОН. По стечению обстоятельств после одного из спецзаданий сослуживцы и командиры начинают подозревать Вячеслава в гибели товарища. Желая реабилитироваться перед ними и вновь заслужить доверие, главный герой вызывается во внеочередную опасную командировку в город Назрань. Там он знакомится с девушкой Наташей, в которую влюбляется с первого взгляда. Наташа принимает ухаживания молодого человека, и у них завязываются отношения. Но Слава скрывает место своей работы и цели командировки. Правду Наташа узнает только в тот момент, когда Слава отправляется на самое опасное боевое задание в своей жизни.

    Снималось в: Россия
    Киностудия: Kino Bureau, Фонд кино
    Время просмотра: 01: 30: 02
    Язык: Русский
    Файл
    Кодек для видео: MPEG-4 AVC
    Качество фильма: WEB-DL (720p)
    Информация о видео: 2569 Кбит/с, 1276x542
    Информация о звуке: AC3, 2 ch, 192 Кбит/с
    MI

    General
    Unique ID : 176002786489688450112314511510641878233 (0x8468E7578BFC3C52ACBF003C5E94A4D9)
    Complete name : D: Prostaya.istoriya.2O16.WEBDL.720p.mkv
    Format : Matroska
    Format version : Version 4/Version 2
    File size : 1.74 GiB
    Duration : 1 h 30 min
    Overall bit rate : 2 759 kb/s
    Encoded date : UTC 2016-08-24 20: 47: 32
    Writing application : mkvmerge v6.8.0 (;Theme for Great Cities;) 64bit built on Mar 2 2014 21: 34: 26
    Writing library : libebml v1.3.0 + libmatroska v1.4.1
    Video
    ID : 1
    Format : AVC
    Format/Info : Advanced Video Codec
    Format profile : High@L4
    Format settings, CABAC : Yes
    Format settings, ReFrames : 4 frames
    Codec ID : V_MPEG4/ISO/AVC
    Duration : 1 h 30 min
    Bit rate : 2 569 kb/s
    Width : 1 276 pixels
    Height : 542 pixels
    Display aspect ratio : 2.35: 1
    Original display aspect rat : 2.35: 1
    Frame rate mode : Constant
    Frame rate : 25.000 FPS
    Color space : YUV
    Chroma subsampling : 4: 2: 0
    Bit depth : 8 bits
    Scan type : Progressive
    Bits/(Pixel*Frame) : 0.149
    Stream size : 1.58 GiB (91%)
    Writing library : x264 core 142
    Encoding settings : cabac=1/ref=3/deblock=1: 0: 0/analyse=0x3: 0x113/me=hex/subme=7/psy=1/psy_rd=1.00: 0.00/mixed_ref=1/me_range=16/chroma_me=1/trellis=1/8x8dct=1/cqm=0/deadzone=21, 11/fast_pskip=1/chroma_qp_offset=-2/threads=36/lookahead_threads=4/sliced_threads=0/nr=0/decimate=1/interlaced=0/bluray_compat=0/constrained_intra=0/bframes=6/b_pyramid=2/b_adapt=1/b_bias=0/direct=1/weightb=1/open_gop=0/weightp=2/keyint=200/keyint_min=20/scenecut=0/intra_refresh=0/rc_lookahead=40/rc=2pass/mbtree=1/bitrate=2569/ratetol=1.0/qcomp=0.60/qpmin=0/qpmax=69/qpstep=4/cplxblur=20.0/qblur=0.5/vbv_maxrate=3854/vbv_bufsize=10279/nal_hrd=none/filler=0/ip_ratio=1.40/aq=1: 1.00
    Language : English
    Default : Yes
    Forced : No
    Audio
    ID : 2
    Format : AC-3
    Format/Info : Audio Coding 3
    Mode extension : CM (complete main)
    Format settings, Endianness : Big
    Codec ID : A_AC3
    Duration : 1 h 30 min
    Bit rate mode : Constant
    Bit rate : 192 kb/s
    Channel(s) : 2 channels
    Channel positions : Front: L R
    Sampling rate : 48.0 kHz
    Frame rate : 31.250 FPS (1536 spf)
    Compression mode : Lossy
    Stream size : 124 MiB (7%)
    Default : Yes
    Forced : No

    Скриншоты




    Онлайн видео Простая история (2016) WEB


    Размер скачиваемого торрента: 1.74 GB (1863116190 Bytes)

    Простая история (2016) WEB-DL 720p
    загрузка...
    Рейтинг →
     (голосов: 1, оценка 3/5, голосовать можно 1 раз )

    Другие торренты по теме:

  • Простая история / The Straight Story (1999) HDRip от Scarabey | P
  • Простая история лапши / San qiang pai an jing qi (2009) BDRip | P, A
  • Простая история / 1960 / РУ / DVDRip
  • Простая история (2016) WEB-DL 1080p
  • Простая история (2016) WEB-DLRip от torrentfilm
  • Простая история (2016) WEB-DLRip от Generalfilm | КПК
  • Простая история / 2016 / РУ / WEB-DLRip
  • Простая история / 2016 / РУ / WEB-DL (1080p)


    • Комментарии (0):

      Информация

      Информация

        Посетители, находящиеся в группе Гости, не могут оставлять комментарии в данной новости.

        ↓ Меню



        ↓ Опрос

        А Вы добавили сайт в закладки?
        Да
        Не


        Top 10 за месяц (Фильмы)