.
Авторизация | Регистрация
Хочешь лучшие торренты? Добавь свой email!
Добавить
» » Пелле завоеватель / Pelle der Eroberer (1986) DVDRip | A скачать торрент бесплатно




    Пелле завоеватель / Pelle der Eroberer (1986) DVDRip | A скачать торрент бесплатно

    Опубликовал: Админ | Дата: 11-10-2016, 05:00 | Просмотров: 20



    Детально о кино
    Русское название: Пелле завоеватель
    Русское название в мировом прокате: Pelle der Eroberer
    Создали в: 1986
    Категория жанра: драма, экранизация
    Главный режиссер: Кристиан Штейнке

    Актеры
    Штефан Шрадер, Мартин Треттау, Клаус Манхен, Карин Грегорек, Вальфриде Шмитт, Марианна Вюншер, Урсула Каруссайт, Морис Цирм, Манфред Цетче, Михаэль Луке

    Сюжет фильма

    Конец 19-го века. Лодка, заполненая шведскими эмигрантами, причаливает к берегу датского острова Борнхольм. Среди них отец и его маленький сын Пелле, которые переехали в Данию, чтобы отец мог найти работу. Отцу через некоторое время после скитаний всё же удается найти работу на большой ферме, но отношение там к наемным работникам оставляет желать лучшего. Однако никто из работающих там не хочет расстаться со своей мечтой о нахождении лучшей жизни, чем та жизнь, которую они оставили в Швеции...
    Экранизация одноименного автобиографического романа датского писателя Мартина Андерсена-Нексё.

    Создали в: ГДР/Fernsehen der DDR
    Время просмотра: 01: 29: 19
    Перевод текста: авторский одноголосыйЮрий Муравский
    Файл
    Качество фильма: DVDRip
    Тип видео: AVI
    Информация о видео: DivX 5, 720x544 (4: 3), 25.000 fps, 2203 kbps, 0.225 bit/pixel
    Информация о звуке #1: русский, AC3 2.0, 48 kHz, 192 kbps
    Информация о звуке #2: немецкий, AC3 2.0, 48 kHz, 192 kbps
    Субтитры: английские внешние, SRT
    MediaInfo
    Формат : AVI
    Формат/Информация : Audio Video Interleave
    Размер файла : 1, 62 Гбайт
    Продолжительность : 1 ч. 29 м.
    Общий поток : 2602 Кбит/сек
    Программа кодирования : VirtualDubModRus 1.5.10.2 (build 2542/release)
    Библиотека кодирования : VirtualDubMod build 2542/release
    Видео
    Идентификатор : 0
    Формат : MPEG-4 Visual
    Профиль формата : Advanced Simple@L5
    Параметр BVOP формата : 2
    Параметр QPel формата : Нет
    Параметр GMC формата : Без точки перехода
    Параметр матрицы формата : Default (MPEG)
    Идентификатор кодека : DX50
    Идентификатор кодека/Подсказка : DivX 5
    Продолжительность : 1 ч. 29 м.
    Битрейт : 2203 Кбит/сек
    Ширина : 720 пикселей
    Высота : 544 пикселя
    Соотношение сторон : 4: 3
    Частота кадров : 25, 000 кадров/сек
    Цветовое пространство : YUV
    Субдискретизация насыщенности : 4: 2: 0
    Битовая глубина : 8 бит
    Тип развёртки : Прогрессивная
    Метод сжатия : С потерями
    Бит/(Пиксели*Кадры) : 0.225
    Размер потока : 1, 37 Гбайт (85%)
    Библиотека кодирования : XviD 1.2.1 (UTC 2008-12-04)
    Аудио #1
    Идентификатор : 1
    Формат : AC-3
    Формат/Информация : Audio Coding 3
    Расширение режима : CM (complete main)
    Параметр Endianness формата : Big
    Идентификатор кодека : 2000
    Продолжительность : 1 ч. 29 м.
    Вид битрейта : Постоянный
    Битрейт : 192 Кбит/сек
    Каналы : 2 канала
    Расположение каналов : Front: L R
    Частота : 48, 0 КГц
    Метод сжатия : С потерями
    Размер потока : 123 Мбайт (7%)
    Выравнивание : Разделение по промежуткам
    Продолжительность промежутка : 40 мс. (1, 00 видеокадр)
    Время предзагрузки промежутка : 500 мс.
    Аудио #2
    Идентификатор : 2
    Формат : AC-3
    Формат/Информация : Audio Coding 3
    Расширение режима : CM (complete main)
    Параметр Endianness формата : Big
    Идентификатор кодека : 2000
    Продолжительность : 1 ч. 29 м.
    Вид битрейта : Постоянный
    Битрейт : 192 Кбит/сек
    Каналы : 2 канала
    Расположение каналов : Front: L R
    Частота : 48, 0 КГц
    Метод сжатия : С потерями
    Размер потока : 123 Мбайт (7%)
    Выравнивание : Разделение по промежуткам
    Продолжительность промежутка : 40 мс. (1, 00 видеокадр)
    Время предзагрузки промежутка : 500 мс.
    Скриншоты

    Залил: makkaronni

    Онлайн видео Пелле завоеватель


    Размер скачиваемого торрента: 1.62 GB (1742935811 Bytes)

    Пелле завоеватель/Pelle der Eroberer (1986) DVDRip | A
    загрузка...
    Рейтинг →
     (голосов: 1, оценка 5/5, голосовать можно 1 раз )

    Другие торренты по теме:

  • Пелле завоеватель / Pelle erobreren (1987) HDRip от Koenig | P2


    • Комментарии (0):

      Информация

      Информация

        Посетители, находящиеся в группе Гости, не могут оставлять комментарии в данной новости.

        ↓ Меню



        ↓ Опрос

        А Вы добавили сайт в закладки?
        Да
        Не


        Top 10 за месяц (Фильмы)