.
Авторизация | Регистрация
Хочешь лучшие торренты? Добавь свой email!
Добавить
» » Романс X / Romance X (1999) DVDRip от Portablius | P скачать торрент бесплатно




    Романс X / Romance X (1999) DVDRip от Portablius | P скачать торрент бесплатно

    Опубликовал: Админ | Дата: 10-10-2016, 05:01 | Просмотров: 56



    Детально о кино
    Русское название: Романс X
    Русское название в мировом прокате: Romance X
    Создали в: 1999
    Категория жанра: Эротика, драма
    Главный режиссер: Катрин Брейя

    Актеры
    Каролин Дюсе, Сагамор Стевенен, Франсуа Берлеан, Карла Рокко Сиффреди, Реза Абуоссен, Эшли Уэннингер, Эмма Кольберти, Карла, Пьер Мофрон

    Сюжет фильма
    История сексуальных переживаний молодой школьной учительницы Мари, которая влюблена в Поля, зарабатывающего себе на жизнь модельным бизнесом. Самовлюбленный Поль спит с ней в одной постели, но отказывается заниматься любовью. Его эротическое безразличие толкает ее на безрассудные похождения…

    Снималось в: Франция
    Киностудия: arte France Cin?ma, Flach Film, Procirep
    Время просмотра: 01: 34: 36
    Перевод текста: Профессиональный (многоголосый, закадровый)
    Субтитры: Нет
    Семпл
    Файл
    Кодек для видео: XviD
    Качество фильма: DVDRip
    Информация о видео: 688x384 (1.79: 1), 25 fps, XviD build 73 ~966 kbps avg, 0.15 bit/pixel
    Информация о звуке: 48 kHz, MPEG Layer 3, 2 ch, ~128.00 kbps avg
    MediaInfo
    Общее
    Полное имя : Romance.1999.DVDRip.ot.Portablius.avi
    Формат : AVI
    Формат/Информация : Audio Video Interleave
    Размер файла : 747 Мбайт
    Продолжительность : 1 ч. 34 м.
    Общий поток : 1104 Кбит/сек
    Программа кодирования : VirtualDubMod 1.5.10.3 | www.virtualdub-fr.org || (build 2550/release)
    Библиотека кодирования : VirtualDubMod build 2550/release
    Видео
    Идентификатор : 0
    Формат : MPEG-4 Visual
    Профиль формата : Advanced Simple@L5
    Параметр BVOP формата : 1
    Параметр QPel формата : Нет
    Параметр GMC формата : Без точки перехода
    Параметр матрицы формата : Выборочная
    Идентификатор кодека : XVID
    Идентификатор кодека/Подсказка : XviD
    Продолжительность : 1 ч. 34 м.
    Битрейт : 967 Кбит/сек
    Ширина : 688 пикселей
    Высота : 384 пикселя
    Соотношение сторон : 16: 9
    Частота кадров : 25, 000 кадров/сек
    Цветовое пространство : YUV
    Субдискретизация насыщенности : 4: 2: 0
    Битовая глубина : 8 бит
    Тип развёртки : Прогрессивная
    Метод сжатия : С потерями
    Бит/(Пиксели*Кадры) : 0.146
    Размер потока : 654 Мбайт (88%)
    Библиотека кодирования : XviD 73
    Аудио
    Идентификатор : 1
    Формат : MPEG Audio
    Версия формата : Version 1
    Профиль формата : Layer 3
    Идентификатор кодека : 55
    Идентификатор кодека/Подсказка : MP3
    Продолжительность : 1 ч. 34 м.
    Вид битрейта : Постоянный
    Битрейт : 128 Кбит/сек
    Каналы : 2 канала
    Частота : 48, 0 КГц
    Метод сжатия : С потерями
    Размер потока : 86, 6 Мбайт (12%)
    Выравнивание : Соединение по промежуткам
    Продолжительность промежутка : 40 мс. (1, 00 видеокадр)
    Время предзагрузки промежутка : 504 мс.
    Библиотека кодирования : LAME3.99r
    Залил: Evgen Portable

    Онлайн видео Романс X


    Размер скачиваемого торрента: 747.18 MB (783470592 Bytes)


    Романс X/Romance X (1999) DVDRip от Portablius | P
    загрузка...
    Рейтинг →
     (голосов: 1, оценка 3/5, голосовать можно 1 раз )

    Другие торренты по теме:

  • Романс / Романс Х / Romance (1999) DVDRip-AVC скачать через торрент бесплатно
  • Романс Х / Romance (1999) DVDRip от MediaClub | КПК скачать через торрент бесплатно
  • Романс Х / Romance (1999) DVDRip-AVC | P


    • Комментарии (0):

      Информация

      Информация

        Посетители, находящиеся в группе Гости, не могут оставлять комментарии в данной новости.

        ↓ Меню



        ↓ Опрос

        А Вы добавили сайт в закладки?
        Да
        Не


        Top 10 за месяц (Фильмы)