.
Авторизация | Регистрация
Хочешь лучшие торренты? Добавь свой email!
Добавить
» » Крутые меры / Bastille Day (2016) HDRip | iTunes скачать торрент бесплатно




    Крутые меры / Bastille Day (2016) HDRip | iTunes скачать торрент бесплатно

    Опубликовал: Админ | Дата: 10-10-2016, 05:01 | Просмотров: 55



    Детально о кино
    Русское название: Крутые меры
    Русское название в мировом прокате: Bastille Day
    Создали в: 2016
    Категория жанра: Боевик, драма
    Главный режиссер: Джеймс Уоткинс

    Актеры
    Идрис Эльба, Ричард Мэдден, Келли Райлли, Шарлотта Ле Бон, Анатол Юсеф, Хорхе Леон Мартинес, Карл Фаррер, Хосе Гарсиа, Александр Купер, Эрик Эбони

    Сюжет фильма

    Ловкий карманник Майкл Мэйсон привлекает внимание полиции и спецслужб, когда крадет сумку, содержащую гораздо больше, чем просто бумажник. На его след выходит дерзкий и резкий спецагент ЦРУ Шон Брайар. Вдвоем они становятся мишенью тайной преступной организации и в течение суток должны вывести злоумышленников на чистую воду.

    Снималось в: Великобритания, Франция, США
    Киностудия: Canal+ fr, Amazon Prime Instant Video, Vendome Pictures
    Время просмотра: 01: 31: 42
    Перевод текста: Профессиональный (полное дублирование)iTunes
    Файл
    Качество фильма: HDRip
    Тип видео: AVI
    Кодек для видео: XviD
    Информация о видео: 720x304 (2.35: 1), 24 fps, XviD ~1741 kbps avg, 0.331 bit/pixel
    Информация о звуке: AC3, 48 kHz, 6 ch, ~384.00 kbps avg | русский |Профессиональный (полное дублирование)iTunes
    Субтитры: Английские (вшитые, на французскую речь)
    Семпл
    Инфо-файл
    Общее
    Полное имя : D: TorrentsЗавершенныеBastille.Day.2016.D.HDRip.avi
    Формат : AVI
    Формат/Информация : Audio Video Interleave
    Размер файла : 1, 37 Гбайт
    Продолжительность : 1 ч. 31 м.
    Общий поток : 2135 Кбит/сек
    Название фильма : KPuTYe.mePY.2o16.D.HDRip.14OOMB
    Программа кодирования : VirtualDubMod 1.5.10.2 (build 2540/release)
    Формат оригинала/Имя : Movie
    Видео
    Идентификатор : 0
    Формат : MPEG-4 Visual
    Профиль формата : Advanced Simple@L5
    Параметр BVOP формата : 2
    Параметр QPel формата : Нет
    Параметр GMC формата : Без точки перехода
    Параметр матрицы формата : Выборочная
    Идентификатор кодека : XVID
    Идентификатор кодека/Подсказка : XviD
    Продолжительность : 1 ч. 31 м.
    Битрейт : 1741 Кбит/сек
    Ширина : 720 пикселей
    Высота : 304 пикселя
    Соотношение сторон : 2, 35: 1
    Частота кадров : 24, 000 кадра/сек
    Цветовое пространство : YUV
    Субдискретизация насыщенности : 4: 2: 0
    Битовая глубина : 8 бит
    Тип развёртки : Прогрессивная
    Метод сжатия : С потерями
    Бит/(Пиксели*Кадры) : 0.331
    Размер потока : 1, 12 Гбайт (82%)
    Библиотека кодирования : XviD 1.2.1 (UTC 2008-12-04)
    Аудио
    Идентификатор : 1
    Формат : AC-3
    Формат/Информация : Audio Coding 3
    Расширение режима : CM (complete main)
    Параметр Endianness формата : Big
    Идентификатор кодека : 2000
    Продолжительность : 1 ч. 31 м.
    Вид битрейта : Постоянный
    Битрейт : 384 Кбит/сек
    Каналы : 6 каналов
    Расположение каналов : Front: L C R, Side: L R, LFE
    Частота : 48, 0 КГц
    Метод сжатия : С потерями
    Размер потока : 252 Мбайт (18%)
    Выравнивание : Разделение по промежуткам
    Продолжительность промежутка : 42 мс. (1, 00 видеокадр)
    Время предзагрузки промежутка : 500 мс.
    Скриншоты

    Залил: admiralkz

    Онлайн видео Крутые меры


    Размер скачиваемого торрента: 1.37 GB (1469880320 Bytes)

    Крутые меры/Bastille Day (2016) HDRip | iTunes
    загрузка...
    Рейтинг →
     (голосов: 1, оценка 4/5, голосовать можно 1 раз )

    Другие торренты по теме:

  • Крутые меры / Bastille Day (2016) HDRip | L1
  • Крутые меры / Bastille Day (2016) BDRip 1080p | L
  • Крутые меры / Bastille Day / 2016 / ЛО / HDRip
  • Крутые меры / Bastille Day / 2016 / ЛО / BDRip (720p)
  • Крутые меры / Bastille Day / 2016 / ПМ / HDRip
  • Крутые меры / Bastille Day / 2016 / ЛО / Blu-Ray Remux (1080p)
  • Крутые меры / Bastille Day (2016) BDRip 720p от ExKinoRay | A
  • Крутые меры / Bastille Day (2016) BDRemux 1080p от ExKinoRay | A


    • Комментарии (0):

      Информация

      Информация

        Посетители, находящиеся в группе Гости, не могут оставлять комментарии в данной новости.

        ↓ Меню



        ↓ Опрос

        А Вы добавили сайт в закладки?
        Да
        Не


        Top 10 за месяц (Фильмы)