.
Авторизация | Регистрация
Хочешь лучшие торренты? Добавь свой email!
Добавить
» » Капля / The Blob (1988) HDRip от Portablius | P скачать торрент бесплатно




    Капля / The Blob (1988) HDRip от Portablius | P скачать торрент бесплатно

    Опубликовал: Админ | Дата: 9-10-2016, 05:00 | Просмотров: 44



    Детально о кино
    Русское название: Капля
    Русское название в мировом прокате: The Blob
    Создали в: 1988
    Категория жанра: ужасы, фантастика
    Главный режиссер: Чак Рассел

    Актеры
    Кевин Диллон (Brian Flagg), Шоуни Смит (Meg Penny), Донован Лейтч мл. (Paul Taylor), Джеффри ДеМанн (Sheriff Herb Geller), Кэнди Кларк (Fran Hewitt), Джо Сенека (Dr. Meddows), Дель Клоуз (Reverend Meeker), Пол МакКрейн (Deputy Bill Briggs), Шэрон Спелман (Mrs. Penny), Биу Биллингсли (Moss Woodley), Арт ЛаФлёр (Pharmacist/Mr. Penny), Рики Полл Голдин (Scott Jeske)

    Сюжет фильма
    Роковой метеорит принес на землю страшное вещество. Жидкая плазма пожирает все на своем пути, и чем больше жертв оказывается в ее бездонных недрах, тем больше становится этот сгусток черной энергии, несущей смерть.

    Снималось в: США
    Время просмотра: 01: 35: 01
    Перевод текста: Профессиональный (многоголосый, закадровый) (Россия)
    Субтитры: Нет
    Семпл
    Файл
    Кодек для видео: XviD
    Качество фильма: HDRip
    Информация о видео: 624x336 (1.86: 1), 23.976 fps, XviD build 73 ~964 kbps avg, 0.19 bit/pixel
    Информация о звуке: 48 kHz, MPEG Layer 3, 2 ch, ~128.00 kbps avg
    MediaInfo
    Общее
    Полное имя : Kaplya.1988.HDRip.ot.Portablius.avi
    Формат : AVI
    Формат/Информация : Audio Video Interleave
    Размер файла : 749 Мбайт
    Продолжительность : 1 ч. 34 м.
    Общий поток : 1102 Кбит/сек
    Программа кодирования : VirtualDubMod 1.5.10.3 | www.virtualdub-fr.org || (build 2550/release)
    Библиотека кодирования : VirtualDubMod build 2550/release
    Видео
    Идентификатор : 0
    Формат : MPEG-4 Visual
    Профиль формата : Advanced Simple@L5
    Параметр BVOP формата : 1
    Параметр QPel формата : Нет
    Параметр GMC формата : Без точки перехода
    Параметр матрицы формата : Выборочная
    Идентификатор кодека : XVID
    Идентификатор кодека/Подсказка : XviD
    Продолжительность : 1 ч. 34 м.
    Битрейт : 965 Кбит/сек
    Ширина : 624 пикселя
    Высота : 336 пикселей
    Соотношение сторон : 1, 85: 1
    Частота кадров : 23, 976 (23976/1000) кадра/сек
    Цветовое пространство : YUV
    Субдискретизация насыщенности : 4: 2: 0
    Битовая глубина : 8 бит
    Тип развёртки : Прогрессивная
    Метод сжатия : С потерями
    Бит/(Пиксели*Кадры) : 0.192
    Размер потока : 656 Мбайт (88%)
    Библиотека кодирования : XviD 73
    Аудио
    Идентификатор : 1
    Формат : MPEG Audio
    Версия формата : Version 1
    Профиль формата : Layer 3
    Идентификатор кодека : 55
    Идентификатор кодека/Подсказка : MP3
    Продолжительность : 1 ч. 34 м.
    Вид битрейта : Постоянный
    Битрейт : 128 Кбит/сек
    Каналы : 2 канала
    Частота : 48, 0 КГц
    Метод сжатия : С потерями
    Размер потока : 87, 0 Мбайт (12%)
    Выравнивание : Соединение по промежуткам
    Продолжительность промежутка : 42 мс. (1, 00 видеокадр)
    Время предзагрузки промежутка : 504 мс.
    Библиотека кодирования : LAME3.99r
    Залил: Evgen Portable
    Размер скачиваемого торрента: 748.81 MB (785188864 Bytes)


    Капля/The Blob (1988) HDRip от Portablius | P
    загрузка...
    Рейтинг →
     (голосов: 1, оценка 4/5, голосовать можно 1 раз )

    Другие торренты по теме:

  • Капля / Слизь / Сгусток / The Blob (1988) HDTVRip | P, А
  • Капля / The Blob (1988) WEB-DLRip от Leon-masl | P2 скачать через торрент бесплатно
  • Капля / The Blob (1988) BDRip | P2 скачать через торрент бесплатно
  • Капля / The Blob / 1988 / ПД / BDRip
  • Капля / The Blob (1988) HDRip от Scarabey | P


    • Комментарии (0):

      Информация

      Информация

        Посетители, находящиеся в группе Гости, не могут оставлять комментарии в данной новости.

        ↓ Меню



        ↓ Опрос

        А Вы добавили сайт в закладки?
        Да
        Не


        Top 10 за месяц (Фильмы)