.
Авторизация | Регистрация
Хочешь лучшие торренты? Добавь свой email!
Добавить
» » Механик: Воскрешение / Mechanic: Resurrection (2016) WEBRip 720p | L скачать торрент бесплатно




    Механик: Воскрешение / Mechanic: Resurrection (2016) WEBRip 720p | L скачать торрент бесплатно

    Опубликовал: Админ | Дата: 8-10-2016, 05:01 | Просмотров: 227



    Детально о кино
    Русское название: Механик: Воскрешение
    Русское название в мировом прокате: Mechanic: Resurrection
    Создали в: 2016
    Категория жанра: Боевик, триллер, криминал
    Главный режиссер: Дэннис Ганзель

    Актеры
    Джейсон Стэйтем, Джессика Альба, Томми Ли Джонс, Мишель Йео, Наталия Гуслистая, Ейяинг Рхатха Пхонгам, Сэм Хэзелдайн, Джон Ченатьемпо, Райчо Василев, Аарон Брамфилд

    Сюжет фильма

    Артура Бишопа, давно оставившего свое криминальное ремесло, вынуждают снова вступить в игру. Чтобы похитители вернули его возлюбленную, он должен сделать то, что у него получается лучше всего: от него требуется совершить три убийства, идеально обставленных как несчастные случаи.

    Снималось в: Франция, США
    Киностудия: Chartoff-Winkler Productions, Davis-Films, ME2 Productions, Millennium Films
    Время просмотра: 01: 38: 00
    Перевод текста: Любительский многоголосый Paradox Omskbird records
    Файл
    Кодек для видео: MPEG-4 AVC
    Качество фильма: WEBRip (720p)
    Информация о видео: 4050 Кбит/с, 1280x534
    Информация о звуке: Русский (AC3, 2 ch, 384 Кбит/с)
    Субтитры: Китайские Вшитые
    Присутствует реклама!
    Семпл
    MI

    General
    Unique ID : 195524003607645156005959866182273292422 (0x93188DA7A7605028AAC545D275C35886)
    Complete name : D: MeXanik.2O16.P.WEB-DL.72Op.mkv
    Format : Matroska
    Format version : Version 2
    File size : 3.04 GiB
    Duration : 1 h 38 min
    Overall bit rate mode : Variable
    Overall bit rate : 4 436 kb/s
    Encoded date : UTC 2016-10-05 17: 45: 56
    Writing application : mkvmerge v8.3.0 (;Over the Horizon;) 64bit
    Writing library : libebml v1.3.1 + libmatroska v1.4.2
    Video
    ID : 1
    Format : AVC
    Format/Info : Advanced Video Codec
    Format profile : High@L4.1
    Format settings, CABAC : Yes
    Format settings, ReFrames : 12 frames
    Codec ID : V_MPEG4/ISO/AVC
    Duration : 1 h 38 min
    Bit rate mode : Variable
    Bit rate : 4 050 kb/s
    Maximum bit rate : 4 400 kb/s
    Width : 1 280 pixels
    Height : 534 pixels
    Display aspect ratio : 2.40: 1
    Frame rate mode : Constant
    Frame rate : 23.976 (24000/1001) FPS
    Standard : Component
    Color space : YUV
    Chroma subsampling : 4: 2: 0
    Bit depth : 8 bits
    Scan type : Progressive
    Bits/(Pixel*Frame) : 0.247
    Stream size : 2.77 GiB (91%)
    Default : Yes
    Forced : No
    Color range : Limited
    Color primaries : BT.709
    Transfer characteristics : BT.709
    Matrix coefficients : BT.709
    Audio
    ID : 2
    Format : AC-3
    Format/Info : Audio Coding 3
    Mode extension : CM (complete main)
    Format settings, Endianness : Big
    Codec ID : A_AC3
    Duration : 1 h 38 min
    Bit rate mode : Constant
    Bit rate : 384 kb/s
    Channel(s) : 2 channels
    Channel positions : Front: L R
    Sampling rate : 48.0 kHz
    Frame rate : 31.250 FPS (1536 spf)
    Compression mode : Lossy
    Stream size : 269 MiB (9%)
    Default : Yes
    Forced : No

    Скриншоты




    Онлайн видео Механик: Воскрешение


    Размер скачиваемого торрента: 3.04 GB (3261069240 Bytes)

    Механик: Воскрешение/Mechanic: Resurrection (2016) WEBRip 720p | L
    загрузка...
    Рейтинг →
     (голосов: 1, оценка 3/5, голосовать можно 1 раз )

    Другие торренты по теме:

  • Механик: Воскрешение / Mechanic: Resurrection (2016) HD 1080 | Трейлер
  • Механик: Воскрешение / Mechanic: Resurrection (2016) WEBRip | Звук c TS
  • Механик: Воскрешение / Mechanic: Resurrection (2016) WEBRip от ImperiaFilm | КПК | L
  • Механик: Воскрешение / Mechanic: Resurrection / 2016 / ДБ (Line) / WEB-DL (1080p)
  • Механик: Воскрешение / Mechanic: Resurrection / 2016 / ДБ (Line) / WEB-DLRip
  • Механик: Воскрешение / Mechanic: Resurrection (2016) WEB-DL 720p от ExKinoRay | iTunes
  • Механик: Воскрешение / Mechanic: Resurrection (2016) WEB-DLRip от Scarabey | iTunes
  • Механик: Воскрешение / Mechanic: Resurrection (2016) WEB-DLRip-AVC от Dalemake | iTunes


    • Комментарии (0):

      Информация

      Информация

        Посетители, находящиеся в группе Гости, не могут оставлять комментарии в данной новости.

        ↓ Меню



        ↓ Опрос

        А Вы добавили сайт в закладки?
        Да
        Не


        Top 10 за месяц (Фильмы)