.
Авторизация | Регистрация
Хочешь лучшие торренты? Добавь свой email!
Добавить
» » Директор / The Principal (1987) WEB-DLRip-AVC от k.e.n | D, P, P2, A скачать торрент бесплатно




    Директор / The Principal (1987) WEB-DLRip-AVC от k.e.n | D, P, P2, A скачать торрент бесплатно

    Опубликовал: Админ | Дата: 8-10-2016, 05:01 | Просмотров: 30



    Создали в: США, TriStar Pictures, Dorica Film, ML Delphi Premier Productions
    Категория жанра: Боевик, Триллер, Драма, Криминал
    Время просмотра: 01: 49: 56
    Перевод текста: Дублированный , многоголосый закадровый, двухголосый закадровый, авторский
    Субтитры: Русский, Английский
    Главный режиссер: Кристофер Кэйн
    Актеры: Джеймс Белуши, Луис Госсет мл., Рей Дон Чонг, Майкл Райт, Дж.Дж. Коэн, Эсай Моралес, Трой Уинбуш, Джейкоб Варгас, Томас Райан, Реджи Джонсон

    Описание фильма

    Рик разъезжает на лихом мотоцикле и разгуливает с бейсбольной битой. Но он — не бандит и не трудный подросток. Рик — новый директор школы, самой худшей в районе, да и в мире, пожалуй. Вместо литературы и математики ученики увлечены драками и наркотиками.
    Только сумасшедший рискнет изменить существующий порядок. Однако Рик — талантливый учитель. Вместо указки он берет свою любимую биту. Кто сказал, что бить учеников не педагогично?

    Качество фильма видео: WEB-DLRip-AVC
    Информация о видео: AVC, 1024x576 (16: 9), 23.976 fps, 2 645 Kbps (0.187 bit/pixel)
    Информация о звуке #1: AC-3, 48.0 KHz, 2 ch, 192 Kbps, CBR (Russian) - дубляж (Варус Видео)
    Информация о звуке #2: AC-3, 48.0 KHz, 2 ch, 192 Kbps, CBR (Russian) - многоголосый R5
    Информация о звуке #3: AC-3, 48.0 KHz, 2 ch, 192 Kbps, CBR (Russian) - многоголосый (Первый канал)
    Информация о звуке #4: AC-3, 48.0 KHz, 2 ch, 192 Kbps, CBR (Russian) - двухголосый (Видеосервис)
    Информация о звуке #5: AC-3, 48.0 KHz, 2 ch, 192 Kbps, CBR (Russian) - авторский А.Гаврилов
    Информация о звуке #6: AC-3, 48.0 KHz, 2 ch, 192 Kbps, CBR (Russian) - двухголосый (СТС)
    Информация о звуке #7: AC-3, 48.0 KHz, 2 ch, 192 Kbps, CBR (Russian) - авторский В.Котов
    Информация о звуке #8: AC-3, 48.0 KHz, 2 ch, 192 Kbps, CBR (English) - оригинал
    Mediainfo:
    Формат : Matroska
    Версия формата : Version 2
    Размер файла : 3, 22 Гбайт
    Продолжительность : 1 ч. 50 м.
    Общий поток : 4185 Кбит/сек
    Дата кодирования : UTC 2016-09-26 22: 02: 54
    Программа кодирования : mkvmerge v5.3.0 (;I could have danced;) built on Feb 9 2012 10: 38: 07
    Библиотека кодирования : libebml v1.2.3 + libmatroska v1.3.0
    Attachment : Yes
    Видео
    Идентификатор : 1
    Формат : AVC
    Формат/Информация : Advanced Video Codec
    Профиль формата : High@L4.1
    Параметр CABAC формата : Да
    Параметр ReFrames формата : 11 кадров
    Идентификатор кодека : V_MPEG4/ISO/AVC
    Продолжительность : 1 ч. 50 м.
    Битрейт : 2645 Кбит/сек
    Ширина : 1024 пикселя
    Высота : 576 пикселей
    Соотношение сторон : 16: 9
    Режим частоты кадров : Постоянный
    Частота кадров : 23, 976 кадра/сек
    Цветовое пространство : YUV
    Субдискретизация насыщенности : 4: 2: 0
    Битовая глубина : 8 бит
    Тип развёртки : Прогрессивная
    Бит/(Пиксели*Кадры) : 0.187
    Размер потока : 1, 98 Гбайт (61%)
    Библиотека кодирования : x264 core 146 r2538 121396c
    Настройки программы : cabac=1/ref=11/deblock=1: -3: -3/analyse=0x3: 0x133/me=umh/subme=10/psy=1/psy_rd=1.10: 0.15/mixed_ref=1/me_range=32/chroma_me=1/trellis=2/8x8dct=1/cqm=0/deadzone=21, 11/fast_pskip=0/chroma_qp_offset=-3/threads=12/lookahead_threads=2/sliced_threads=0/nr=0/decimate=0/interlaced=0/bluray_compat=0/constrained_intra=0/bframes=8/b_pyramid=2/b_adapt=2/b_bias=0/direct=3/weightb=1/open_gop=0/weightp=2/keyint=240/keyint_min=23/scenecut=40/intra_refresh=0/rc_lookahead=40/rc=2pass/mbtree=0/bitrate=2645/ratetol=1.0/qcomp=0.60/qpmin=0/qpmax=69/qpstep=4/cplxblur=20.0/qblur=0.5/vbv_maxrate=50000/vbv_bufsize=62500/nal_hrd=none/filler=0/ip_ratio=1.40/pb_ratio=1.30/aq=3: 1.00
    Default : Да
    Forced : Нет
    Аудио #1
    Идентификатор : 2
    Формат : AC-3
    Формат/Информация : Audio Coding 3
    Расширение режима : CM (complete main)
    Параметр Endianness формата : Big
    Идентификатор кодека : A_AC3
    Продолжительность : 1 ч. 50 м.
    Вид битрейта : Постоянный
    Битрейт : 192 Кбит/сек
    Каналы : 2 канала
    Расположение каналов : Front: L R
    Частота : 48, 0 КГц
    Битовая глубина : 16 бит
    Метод сжатия : С потерями
    Задержка видео : 1 с. 0 мс.
    Размер потока : 151 Мбайт (5%)
    Заголовок : DUB
    Язык : Russian
    Default : Да
    Forced : Нет
    Аудио #2
    Идентификатор : 3
    Формат : AC-3
    Формат/Информация : Audio Coding 3
    Расширение режима : CM (complete main)
    Параметр Endianness формата : Big
    Идентификатор кодека : A_AC3
    Продолжительность : 1 ч. 50 м.
    Вид битрейта : Постоянный
    Битрейт : 192 Кбит/сек
    Каналы : 2 канала
    Расположение каналов : Front: L R
    Частота : 48, 0 КГц
    Битовая глубина : 16 бит
    Метод сжатия : С потерями
    Размер потока : 151 Мбайт (5%)
    Заголовок : MVO - R5
    Язык : Russian
    Default : Нет
    Forced : Нет
    Аудио #3
    Идентификатор : 4
    Формат : AC-3
    Формат/Информация : Audio Coding 3
    Расширение режима : CM (complete main)
    Параметр Endianness формата : Big
    Идентификатор кодека : A_AC3
    Продолжительность : 1 ч. 50 м.
    Вид битрейта : Постоянный
    Битрейт : 192 Кбит/сек
    Каналы : 2 канала
    Расположение каналов : Front: L R
    Частота : 48, 0 КГц
    Битовая глубина : 16 бит
    Метод сжатия : С потерями
    Размер потока : 151 Мбайт (5%)
    Заголовок : MVO - Первый канал
    Язык : Russian
    Default : Нет
    Forced : Нет
    Аудио #4
    Идентификатор : 5
    Формат : AC-3
    Формат/Информация : Audio Coding 3
    Расширение режима : CM (complete main)
    Параметр Endianness формата : Big
    Идентификатор кодека : A_AC3
    Продолжительность : 1 ч. 50 м.
    Вид битрейта : Постоянный
    Битрейт : 192 Кбит/сек
    Каналы : 2 канала
    Расположение каналов : Front: L R
    Частота : 48, 0 КГц
    Битовая глубина : 16 бит
    Метод сжатия : С потерями
    Размер потока : 151 Мбайт (5%)
    Заголовок : DVO - Видеосервис
    Язык : Russian
    Default : Нет
    Forced : Нет
    Аудио #5
    Идентификатор : 6
    Формат : AC-3
    Формат/Информация : Audio Coding 3
    Расширение режима : CM (complete main)
    Параметр Endianness формата : Big
    Идентификатор кодека : A_AC3
    Продолжительность : 1 ч. 50 м.
    Вид битрейта : Постоянный
    Битрейт : 192 Кбит/сек
    Каналы : 2 канала
    Расположение каналов : Front: L R
    Частота : 48, 0 КГц
    Битовая глубина : 16 бит
    Метод сжатия : С потерями
    Размер потока : 151 Мбайт (5%)
    Заголовок : AVO - А. Гаврилов
    Язык : Russian
    Default : Нет
    Forced : Нет
    Аудио #6
    Идентификатор : 7
    Формат : AC-3
    Формат/Информация : Audio Coding 3
    Расширение режима : CM (complete main)
    Параметр Endianness формата : Big
    Идентификатор кодека : A_AC3
    Продолжительность : 1 ч. 50 м.
    Вид битрейта : Постоянный
    Битрейт : 192 Кбит/сек
    Каналы : 2 канала
    Расположение каналов : Front: L R
    Частота : 48, 0 КГц
    Битовая глубина : 16 бит
    Метод сжатия : С потерями
    Размер потока : 151 Мбайт (5%)
    Заголовок : DVO - СТС
    Язык : Russian
    Default : Нет
    Forced : Нет
    Аудио #7
    Идентификатор : 8
    Формат : AC-3
    Формат/Информация : Audio Coding 3
    Расширение режима : CM (complete main)
    Параметр Endianness формата : Big
    Идентификатор кодека : A_AC3
    Продолжительность : 1 ч. 50 м.
    Вид битрейта : Постоянный
    Битрейт : 192 Кбит/сек
    Каналы : 2 канала
    Расположение каналов : Front: L R
    Частота : 48, 0 КГц
    Битовая глубина : 16 бит
    Метод сжатия : С потерями
    Размер потока : 151 Мбайт (5%)
    Заголовок : AVO В.Котов
    Язык : Russian
    Default : Нет
    Forced : Нет
    Аудио #8
    Идентификатор : 9
    Формат : AC-3
    Формат/Информация : Audio Coding 3
    Расширение режима : CM (complete main)
    Параметр Endianness формата : Big
    Идентификатор кодека : A_AC3
    Продолжительность : 1 ч. 50 м.
    Вид битрейта : Постоянный
    Битрейт : 192 Кбит/сек
    Каналы : 2 канала
    Расположение каналов : Front: L R
    Частота : 48, 0 КГц
    Битовая глубина : 16 бит
    Метод сжатия : С потерями
    Размер потока : 151 Мбайт (5%)
    Язык : English
    Default : Нет
    Forced : Нет
    Текст #1
    Идентификатор : 10
    Формат : UTF-8
    Идентификатор кодека : S_TEXT/UTF8
    Идентификатор кодека/Информация : UTF-8 Plain Text
    Язык : Russian
    Default : Нет
    Forced : Нет
    Текст #2
    Идентификатор : 11
    Формат : UTF-8
    Идентификатор кодека : S_TEXT/UTF8
    Идентификатор кодека/Информация : UTF-8 Plain Text
    Язык : English
    Default : Нет
    Forced : Нет
    Меню
    00: 00: 00.000 : en: 1
    00: 05: 58.000 : en: 2
    00: 12: 31.000 : en: 3
    00: 17: 26.000 : en: 4
    00: 23: 29.000 : en: 5
    00: 26: 53.000 : en: 6
    00: 32: 34.000 : en: 7
    00: 41: 10.000 : en: 8
    00: 47: 20.000 : en: 9
    00: 55: 31.000 : en: 10
    01: 06: 45.000 : en: 11
    01: 12: 56.000 : en: 12
    01: 17: 22.000 : en: 13
    01: 23: 06.000 : en: 14
    01: 29: 59.000 : en: 15
    01: 44: 39.000 : en: 16

    Скриншоты:

    Релиз подготовил: K.E.N(NNM-CLUB)

    Онлайн видео Директор


    Размер скачиваемого торрента: 3.22 GB (3461436864 Bytes)

    Директор/The Principal (1987) WEB-DLRip-AVC от k.e.n | D, P, P2, A
    загрузка...
    Рейтинг →
     (голосов: 1, оценка 4/5, голосовать можно 1 раз )

    Другие торренты по теме:

  • Директор / The Principal (1987) DVDRip-AVC
  • Директор / The Principal (1987) WEB-DLRip | P, P2, A
  • Директор / The Principal (2015-2016) WEB-DLRip 720p | ViruseProject
  • Директор / The Principal / 1987 / ПМ, 2 x ПД, АП (Гаврилов), СТ / WEBRip (1080p)
  • Директор / The Principal (1987) WEB-DLRip-AVC от k.e.n | D, P, P2, A


    • Комментарии (0):

      Информация

      Информация

        Посетители, находящиеся в группе Гости, не могут оставлять комментарии в данной новости.

        ↓ Меню



        ↓ Опрос

        А Вы добавили сайт в закладки?
        Да
        Не


        Top 10 за месяц (Фильмы)