.
Авторизация | Регистрация
Хочешь лучшие торренты? Добавь свой email!
Добавить
» » Октябрьское небо / October Sky (1999) BDRip 1080p | P, P2 скачать торрент бесплатно




    Октябрьское небо / October Sky (1999) BDRip 1080p | P, P2 скачать торрент бесплатно

    Опубликовал: Админ | Дата: 6-10-2016, 05:00 | Просмотров: 56



    Детально о кино
    Русское название: Октябрьское небо
    Русское название в мировом прокате: October Sky
    Создали в: 1999
    Категория жанра: драма, семейный, биография
    Главный режиссер: Джо Джонстон

    Актеры
    Джейк Джилленхол, Лора Дерн, Крис Купер, Крис Оуэн, Уильям Ли Скотт, Чэд Линдберг, Натали Кэнердей, Скотт Томас, Рэнди Стриплинг, Крис Эллис

    Сюжет фильма

    В октябре 1957 года произошло событие эпохального значения. Советский Союз впервые в истории человечества запустил на земную орбиту первый Спутник. Мир стал другим.
    Запуск советской ракеты произвел неизгладимое впечатление на мальчика по имени Хомер Хикэм из небольшого шахтерского городка Колвуд в Западной Вирджинии. Всерьез заболевший космосом, Хомер решает построить собственную ракету. В этом ему начинают помогать трое друзей и школьная учительница. Однако отец Хомера, шахтер — работяга, видящий сына только в роли продолжателя своего нелегкого дела, категорически противится стремлениям своего ребенка.
    Но, несмотря ни на что, мальчик сделает все возможное и невозможное, чтобы его мечта стала явью…

    Снималось в: США
    Киностудия: Universal Pictures
    Время просмотра: 01: 47: 28
    Перевод текста: Профессиональный (двухголосый, закадровый) Премьер Видео Фильм + Профессиональный (многоголосый, закадровый) т/к Россия
    Файл
    Тип видео: Matroska
    Информация о видео: 1920x816 at 23.976 fps, x264@L4.1, ~11594 kbps avg
    Информация о звуке#1: Russian: 48 kHz, AC3, 2/0 (L, R) ch, ~224 kbps |Двухголосый закадровый, Премьер Видео Фильм|
    Информация о звуке#2: Russian: 48 kHz, AC3, 2/0 (L, R) ch, ~192 kbps |Многоголосый закадровый, т/к Россия|
    Информация о звуке#3: English: 48 kHz, DTS, 3/2 (L, C, R, l, r) + LFE ch, ~1509 kbps
    Субтитры: English, French, Spanish, Portuguese
    ***Сохранены и подписаны оригинальные главы как на Blu-ray.
    ***Видеоряд - AMIABLE, сборка - whalekilla
    MI
    Общее
    Уникальный идентификатор : 247798945313349854719636521392272166660 (0xBA6C574500D2F06CBEECDF3BA6EDCF04)
    Полное имя : October.Sky.1999.BDRip.(1080p).mkv
    Формат : Matroska
    Версия формата : Version 4/Version 2
    Размер файла : 10, 1 Гбайт
    Продолжительность : 1 ч. 47 м.
    Общий поток : 13, 5 Мбит/сек
    Название фильма : October Sky (1999)
    Дата кодирования : UTC 2016-10-05 12: 52: 16
    Программа кодирования : mkvmerge v6.9.1 (;Blue Panther;) 64bit built on Apr 18 2014 18: 23: 38
    Библиотека кодирования : libebml v1.3.0 + libmatroska v1.4.1
    Видео
    Идентификатор : 1
    Формат : AVC
    Формат/Информация : Advanced Video Codec
    Профиль формата : High@L4.1
    Параметр CABAC формата : Да
    Параметр ReFrames формата : 5 кадров
    Идентификатор кодека : V_MPEG4/ISO/AVC
    Продолжительность : 1 ч. 47 м.
    Битрейт : 11, 6 Мбит/сек
    Ширина : 1920 пикселей
    Высота : 816 пикселей
    Соотношение сторон : 2, 35: 1
    Режим частоты кадров : Постоянный
    Частота кадров : 23, 976 кадра/сек
    Цветовое пространство : YUV
    Субдискретизация насыщенности : 4: 2: 0
    Битовая глубина : 8 бит
    Тип развёртки : Прогрессивная
    Бит/(Пиксели*Кадры) : 0.309
    Размер потока : 8, 50 Гбайт (84%)
    Заголовок : October Sky (1999)
    Библиотека кодирования : x264 core 148 r2705 3f5ed56
    Настройки программы : cabac=1/ref=5/deblock=1: -3: -3/analyse=0x3: 0x113/me=umh/subme=8/psy=1/psy_rd=1.10: 0.00/mixed_ref=1/me_range=32/chroma_me=1/trellis=1/8x8dct=1/cqm=0/deadzone=21, 11/fast_pskip=1/chroma_qp_offset=-2/threads=24/lookahead_threads=4/sliced_threads=0/nr=0/decimate=1/interlaced=0/bluray_compat=0/constrained_intra=0/bframes=3/b_pyramid=2/b_adapt=2/b_bias=0/direct=3/weightb=1/open_gop=0/weightp=2/keyint=240/keyint_min=24/scenecut=40/intra_refresh=0/rc_lookahead=50/rc=2pass/mbtree=1/bitrate=11594/ratetol=1.0/qcomp=0.60/qpmin=0/qpmax=69/qpstep=4/cplxblur=20.0/qblur=0.5/ip_ratio=1.40/aq=3: 0.75
    Язык : English
    Default : Да
    Forced : Нет
    Аудио #1
    Идентификатор : 2
    Формат : AC-3
    Формат/Информация : Audio Coding 3
    Расширение режима : CM (complete main)
    Параметр Endianness формата : Big
    Идентификатор кодека : A_AC3
    Продолжительность : 1 ч. 47 м.
    Вид битрейта : Постоянный
    Битрейт : 224 Кбит/сек
    Каналы : 2 канала
    Расположение каналов : Front: L R
    Частота : 48, 0 КГц
    Метод сжатия : С потерями
    Размер потока : 172 Мбайт (2%)
    Заголовок : AC3, 2 ch, 224 Kbps, MVO, ;Премьер Видео;
    Язык : Russian
    Default : Да
    Forced : Нет
    Аудио #2
    Идентификатор : 3
    Формат : AC-3
    Формат/Информация : Audio Coding 3
    Расширение режима : CM (complete main)
    Параметр Endianness формата : Big
    Идентификатор кодека : A_AC3
    Продолжительность : 1 ч. 47 м.
    Вид битрейта : Постоянный
    Битрейт : 192 Кбит/сек
    Каналы : 2 канала
    Расположение каналов : Front: L R
    Частота : 48, 0 КГц
    Метод сжатия : С потерями
    Размер потока : 148 Мбайт (1%)
    Заголовок : AC3, 2 ch, 192 Kbps, MVO, ;Россия;
    Язык : Russian
    Default : Нет
    Forced : Нет
    Аудио #3
    Идентификатор : 4
    Формат : DTS
    Формат/Информация : Digital Theater Systems
    Режим : 16
    Параметр Endianness формата : Big
    Идентификатор кодека : A_DTS
    Продолжительность : 1 ч. 47 м.
    Вид битрейта : Постоянный
    Битрейт : 1509 Кбит/сек
    Каналы : 6 каналов
    Расположение каналов : Front: L C R, Side: L R, LFE
    Частота : 48, 0 КГц
    Битовая глубина : 24 бит
    Метод сжатия : С потерями
    Размер потока : 1, 13 Гбайт (11%)
    Заголовок : DTS, 6 ch, 1509 Kbps, Original
    Язык : English
    Default : Нет
    Forced : Нет
    Текст #1
    Идентификатор : 5
    Формат : UTF-8
    Идентификатор кодека : S_TEXT/UTF8
    Идентификатор кодека/Информация : UTF-8 Plain Text
    Язык : English
    Default : Нет
    Forced : Нет
    Текст #2
    Идентификатор : 6
    Формат : UTF-8
    Идентификатор кодека : S_TEXT/UTF8
    Идентификатор кодека/Информация : UTF-8 Plain Text
    Язык : French
    Default : Нет
    Forced : Нет
    Текст #3
    Идентификатор : 7
    Формат : UTF-8
    Идентификатор кодека : S_TEXT/UTF8
    Идентификатор кодека/Информация : UTF-8 Plain Text
    Язык : Spanish
    Default : Нет
    Forced : Нет
    Текст #4
    Идентификатор : 8
    Формат : UTF-8
    Идентификатор кодека : S_TEXT/UTF8
    Идентификатор кодека/Информация : UTF-8 Plain Text
    Язык : Portuguese
    Default : Нет
    Forced : Нет
    Меню
    00: 00: 00.000 : en: The Age of Sputnik
    00: 02: 29.566 : en: The Coalwood Boy
    00: 09: 05.545 : en: To Build a Rocket
    00: 17: 48.859 : en: Stroke of Genius
    00: 25: 19.685 : en: Cape Coalwood
    00: 34: 35.198 : en: Rocket Roulette
    00: 38: 10.663 : en: Splitting the Sky
    00: 41: 12.512 : en: False Hopes
    00: 46: 21.696 : en: Up in Smoke
    00: 53: 14.900 : en: Valentine
    00: 54: 42.529 : en: I Won;t Shed a Tear
    01: 07: 16.407 : en: A Life That Counts
    01: 12: 30.638 : en: Search for AUK 13
    01: 21: 26.965 : en: Strike
    01: 25: 32.961 : en: Homer;s in Trouble
    01: 29: 20.272 : en: The Highest Honor
    01: 35: 14.500 : en: This One;s Yours
    01: 39: 58.659 : en: Epilogue/Titles
    Скриншоты


    Онлайн видео Октябрьское небо


    Размер скачиваемого торрента: 10.15 GB (10895464008 Bytes)

    Октябрьское небо/October Sky (1999) BDRip 1080p | P, P2
    загрузка...
    Рейтинг →
     (голосов: 1, оценка 4/5, голосовать можно 1 раз )

    Другие торренты по теме:

  • Октябрьское небо / October Sky (1999) DVDRip от MediaClub | КПК
  • Октябрьское небо / October Sky (1999) HDRip от MegaPeer | P
  • Октябрьское небо / October Sky (1999) BDRip 720p | P2, P, A


    • Комментарии (0):

      Информация

      Информация

        Посетители, находящиеся в группе Гости, не могут оставлять комментарии в данной новости.

        ↓ Меню



        ↓ Опрос

        А Вы добавили сайт в закладки?
        Да
        Не


        Top 10 за месяц (Фильмы)