.
Авторизация | Регистрация
Хочешь лучшие торренты? Добавь свой email!
Добавить
» » Приказано уничтожить / Executive Decision (1996) DVD9 от NovaLan скачать торрент бесплатно




    Приказано уничтожить / Executive Decision (1996) DVD9 от NovaLan скачать торрент бесплатно

    Опубликовал: Админ | Дата: 27-02-2015, 11:09 | Просмотров: 423



    Название: Приказано уничтожить
    Оригинальное название: Executive Decision
    Год выхода: 1996
    Жанр: Боевик, триллер, приключения
    Режиссер: Стюарт Бейрд
    В ролях: Курт Рассел, Стивен Сигал, Холли Берри, Джон Легуизамо, Оливер Плэтт, Джо Мортон, Б.Д. Вонг, Лен Кариу, Уип Хабли, Андреас Кацулас, Мэри Эллен Трейнор, Марла Мэйплс, Дж.Т. Уолш, Инго Нойхаус, Уильям Джеймс Джонс, Пол Коллинз, Николас Прайор, Стэнли Гроувер, Юджин Роч, Кен Дженкинс, Чарльз Хэллахан, Дей Янг, Ричард Риле
    О фильме:
    Задание: проникнуть на борт находящегося в воздухе на высоте 5 миль над землей Боинга - 747, захваченного террористами. Провести операцию скрытно. Найти и обезвредить находящуюся на боевом взводе бомбу, способную уничтожить все население восточных прибрежных штатов. Сделать это в отсутствии радиосвязи с землей, прежде, чем у военных сдадут нервы и они отдадут приказ уничтожить авиалайнер ракетной атакой.


    Страна: США, Silver Pictures, Warner Bros. Pictures
    Продолжительность: 02:07:36
    Перевод: Дублированный (Мост-Видео) / Профессиональный многоголосый / Дублированный (Варус-Видео)

    Кодек: MPEG-2
    Качество: DVD-9
    Видео: PAL 16:9 (720x576) VBR
    Звук: Русский (Dolby AC3, 6 ch), (Dolby AC3, 2 ch), английский (Dolby AC3, 6 ch)
    Субтитры: Русские, английские

    Релиз группы NovaLan
    Автор релиза Sergei7721
    Производство: Blu-Ray Remux DVD-9
    Дата релиза: 05.01.2013





    MediaInfo

    Полное имя : C:UsersСергейDownloadsРаздачиPrikazano.unichtozitj.1996.DVD9.NovaLanVIDEO_TSVTS_01_1.VOB
    Формат : MPEG-PS
    Размер файла : 1024 Мбайт
    Продолжительность : 15 м.
    Режим общего битрейта : Переменный
    Общий поток : 9057 Кбит/сек

    Видео
    Идентификатор : 224 (0xE0)
    Формат : MPEG Video
    Версия формата : Version 2
    Профиль формата : Main@Main
    Параметр BVOP формата : Да
    Параметр матрицы формата : Выборочная
    Продолжительность : 15 м.
    Вид битрейта : Переменный
    Битрейт : 7724 Кбит/сек
    Максимальный битрейт : 8600 Кбит/сек
    Ширина : 720 пикселей
    Высота : 576 пикселей
    Соотношение сторон : 16:9
    Частота кадров : 25,000 кадров/сек
    Стандарт вещания : PAL
    Цветовое пространство : YUV
    Субдискретизация насыщенности : 4:2:0
    Битовая глубина : 8 бит
    Тип развёртки : Чересстрочная
    Порядок развёртки : Верхнее поле первое
    Метод сжатия : С потерями
    Бит/(Пиксели*Кадры) : 0.745
    Размер потока : 873 Мбайт (85%)

    Аудио #1
    Идентификатор : 189 (0xBD)-128 (0x80)
    Формат : AC-3
    Формат/Информация : Audio Coding 3
    Расширение режима : CM (complete main)
    Параметр Endianness формата : Big
    Режим смешивания : DVD-Video
    Продолжительность : 15 м.
    Вид битрейта : Постоянный
    Битрейт : 384 Кбит/сек
    Каналы : 6 каналов
    Расположение каналов : Front: L C R, Side: L R, LFE
    Частота : 48,0 КГц
    Битовая глубина : 16 бит
    Метод сжатия : С потерями
    Размер потока : 43,4 Мбайт (4%)

    Аудио #2
    Идентификатор : 189 (0xBD)-129 (0x81)
    Формат : AC-3
    Формат/Информация : Audio Coding 3
    Расширение режима : CM (complete main)
    Параметр Endianness формата : Big
    Режим смешивания : DVD-Video
    Продолжительность : 15 м.
    Вид битрейта : Постоянный
    Битрейт : 384 Кбит/сек
    Каналы : 6 каналов
    Расположение каналов : Front: L C R, Side: L R, LFE
    Частота : 48,0 КГц
    Битовая глубина : 16 бит
    Метод сжатия : С потерями
    Размер потока : 43,4 Мбайт (4%)

    Аудио #3
    Идентификатор : 189 (0xBD)-130 (0x82)
    Формат : AC-3
    Формат/Информация : Audio Coding 3
    Расширение режима : CM (complete main)
    Параметр Endianness формата : Big
    Режим смешивания : DVD-Video
    Продолжительность : 15 м.
    Вид битрейта : Постоянный
    Битрейт : 192 Кбит/сек
    Каналы : 2 канала
    Расположение каналов : Front: L R
    Частота : 48,0 КГц
    Битовая глубина : 16 бит
    Метод сжатия : С потерями
    Размер потока : 21,7 Мбайт (2%)

    Аудио #4
    Идентификатор : 189 (0xBD)-131 (0x83)
    Формат : AC-3
    Формат/Информация : Audio Coding 3
    Расширение режима : CM (complete main)
    Параметр Endianness формата : Big
    Режим смешивания : DVD-Video
    Продолжительность : 15 м.
    Вид битрейта : Постоянный
    Битрейт : 192 Кбит/сек
    Каналы : 2 канала
    Расположение каналов : Front: L R
    Частота : 48,0 КГц
    Битовая глубина : 16 бит
    Метод сжатия : С потерями
    Размер потока : 21,7 Мбайт (2%)


    Меню озвучено (русское, английское)

    Скриншоты меню




    Релиз от:
    Залил: Sergei7721
    Размер: 7.90 GB (8483733504 Bytes)
    загрузка...
    Рейтинг →
     (голосов: 1, оценка 4/5, голосовать можно 1 раз )

    Другие торренты по теме:

  • Приказано уничтожить: Операция Красная ртуть (2004) PC | Repack от R.G. UPG
  • Приказано уничтожить! Операция: Китайская шкатулка (2009) DVD5 скачать через торрент бесплатно
  • Приказано уничтожить / Strategic Command (1997) BDRip-AVC от E76 | P
  • Приказано уничтожить / Executive Decision (1996) BDRip 720p | D, P, P2, A


    • Комментарии (0):

      Информация

      Информация

        Посетители, находящиеся в группе Гости, не могут оставлять комментарии в данной новости.

        ↓ Меню



        ↓ Опрос

        А Вы добавили сайт в закладки?
        Да
        Не


        Top 10 за месяц (Фильмы)