.
Авторизация | Регистрация
Хочешь лучшие торренты? Добавь свой email!
Добавить
» » Добро пожаловать в рай / Vice (2015) DVD-9 от NovaLan | D скачать торрент бесплатно




    Добро пожаловать в рай / Vice (2015) DVD-9 от NovaLan | D скачать торрент бесплатно

    Опубликовал: Админ | Дата: 4-10-2016, 05:01 | Просмотров: 82



    Детально о кино
    Русское название: Добро пожаловать в рай
    Русское название в мировом прокате: Vice
    Создали в: 2015
    Категория жанра: Фантастика
    Главный режиссер: Брайан А Миллер

    Актеры
    Томас Джейн, Брюс Уиллис, Эмбир Чилдерс, Брайан Гринберг, Джонатон Шек, Шарлотта Кирк, Бретт Гранстафф, Райан О’Нан, Дэвид Гордон, Колин Эглсфилд, Камерон Брекслер, Джесси Пруэтт, Тайлер Джон Олсон, Дон Харви, Лидия Халл
    Описание: Действие происходит в относительно недалеком будущем, когда для богачей создан специальный город-курорт, основные обитатели которых и обслуга — андроиды. Туристы за соответствующую цену могут осуществить здесь самые безумные свои фантазии, а андроиды, пострадавшие от рук людей, направляются на перезагрузку памяти. Но однажды случается сбой, и женщина-андроид обретает память о всех кошмарах, которым богатые извращенцы подвергали ее и остальных искусственных людей. И она решает отомстить…
    Снималось в: США
    Киностудия: Aperture Entertainment, Emmett/Furla Films
    Время просмотра: Дублированный
    Перевод текста:
    Файл
    Кодек для видео: MPEG-2
    Качество фильма: DVD-9
    Информация о видео: MPEG2, NTSC 16: 9 (720x480@853x480) VBR, 23, 976 кадра/сек
    Информация о звуке: Русский/Английский/Немецкий DD 5.1 (384 Kbps)

    Меню
    DVDInfo

    Title:
    Size: 5.69 Gb ( 5 962 926 KBytes ) - DVD-9
    Enabled regions: 1, 2, 3, 4, 5, 6, 7, 8
    VTS_01 :
    Play Length: 01: 36: 17
    Video: NTSC 16: 9 (720x480) VBR, Auto PanScan
    Audio:
    Deutsch (Dolby AC3, 6 ch)
    English (Dolby AC3, 6 ch)
    Russian (Dolby AC3, 6 ch)
    Menu Video:
    NTSC 4: 3 (704x480) VBR
    Menu English Language Unit :
    Root Menu
    MediaInfo

    Общее
    Полное имя : G: ААА2Добро пожаловать в райVIDEO_TSVTS_01_1.VOB
    Формат : MPEG-PS
    Размер файла : 1000 Мбайт
    Продолжительность : 17 м.
    Режим общего битрейта : Переменный
    Общий поток : 8153 Кбит/сек
    Видео
    Идентификатор : 224 (0xE0)
    Формат : MPEG Video
    Версия формата : Version 2
    Профиль формата : Main@Main
    Параметр BVOP формата : Да
    Параметр матрицы формата : По умолчанию
    Параметр GOP формата : M=3, N=12
    Продолжительность : 17 м.
    Вид битрейта : Переменный
    Битрейт : 6647 Кбит/сек
    Максимальный битрейт : 7880 Кбит/сек
    Ширина : 720 пикселей
    Высота : 480 пикселей
    Соотношение сторон : 16: 9
    Частота кадров : 23, 976 кадра/сек
    Стандарт вещания : NTSC
    Цветовое пространство : YUV
    Субдискретизация насыщенности : 4: 2: 0
    Битовая глубина : 8 бит
    Тип развёртки : Прогрессивная
    Порядок развёртки : 2: 3 Pulldown
    Метод сжатия : С потерями
    Бит/(Пиксели*Кадры) : 0.802
    TimeCode_FirstFrame : 00: 00: 00;00
    TimeCode_Source : Group of pictures t_head
    Размер потока : 815 Мбайт (82%)
    Аудио #1
    Идентификатор : 189 (0xBD)-128 (0x80)
    Формат : AC-3
    Формат/Информация : Audio Coding 3
    Расширение режима : CM (complete main)
    Параметр Endianness формата : Big
    Режим смешивания : DVD-Video
    Продолжительность : 17 м.
    Вид битрейта : Постоянный
    Битрейт : 448 Кбит/сек
    Каналы : 6 каналов
    Расположение каналов : Front: L C R, Side: L R, LFE
    Частота : 48, 0 КГц
    Битовая глубина : 16 бит
    Метод сжатия : С потерями
    Размер потока : 54, 9 Мбайт (5%)
    Аудио #2
    Идентификатор : 189 (0xBD)-129 (0x81)
    Формат : AC-3
    Формат/Информация : Audio Coding 3
    Расширение режима : CM (complete main)
    Параметр Endianness формата : Big
    Режим смешивания : DVD-Video
    Продолжительность : 17 м.
    Вид битрейта : Постоянный
    Битрейт : 448 Кбит/сек
    Каналы : 6 каналов
    Расположение каналов : Front: L C R, Side: L R, LFE
    Частота : 48, 0 КГц
    Битовая глубина : 16 бит
    Метод сжатия : С потерями
    Размер потока : 54, 9 Мбайт (5%)
    Аудио #3
    Идентификатор : 189 (0xBD)-130 (0x82)
    Формат : AC-3
    Формат/Информация : Audio Coding 3
    Расширение режима : CM (complete main)
    Параметр Endianness формата : Big
    Режим смешивания : DVD-Video
    Продолжительность : 17 м.
    Вид битрейта : Постоянный
    Битрейт : 448 Кбит/сек
    Каналы : 6 каналов
    Расположение каналов : Front: L C R, Side: L R, LFE
    Частота : 48, 0 КГц
    Битовая глубина : 16 бит
    Метод сжатия : С потерями
    Размер потока : 54, 9 Мбайт (5%)
    Меню
    Скриншоты



    Релиз:
    Залил: YArl

    Онлайн видео Добро пожаловать в рай


    Размер скачиваемого торрента: 5.69 GB (6106036224 Bytes)

    Добро пожаловать в рай/Vice (2015) DVD-9 от NovaLan | D
    загрузка...
    Рейтинг →
     (голосов: 1, оценка 3/5, голосовать можно 1 раз )

    Другие торренты по теме:

  • Добро пожаловать в капкан / Добро пожаловать в Панч / Welcome to the Punch (2013) BDRip от HQCLUB
  • Добро пожаловать в капкан / Добро пожаловать в Панч / Welcome to the Punch (2013) BDRip от HQCLUB | Лицензия
  • Добро пожаловать в рай / Into the Blue (2005) BDRip 1080p от FfClub
  • Добро пожаловать в Музпорт / Welcome to Mooseport (2004) HDTVRip 720p от Youtracker | P, L2
  • Добро пожаловать в Лэйквью! / Lakeview Terrace (2008) BDRip от HQ-ViDEO
  • Добро пожаловать в рай! / Into the Blue (2005) BDRip 1080p | D, P2, A
  • Добро пожаловать в Лос-Анджелес / Welcome to L.A. (1976) DVDRip-AVC от Temperest
  • Добро пожаловать в Лэйквью / Lakeview Terrace (2008) BDRip-AVC от ExKinoRay


    • Комментарии (0):

      Информация

      Информация

        Посетители, находящиеся в группе Гости, не могут оставлять комментарии в данной новости.

        ↓ Меню



        ↓ Опрос

        А Вы добавили сайт в закладки?
        Да
        Не


        Top 10 за месяц (Фильмы)