.
Авторизация | Регистрация
Хочешь лучшие торренты? Добавь свой email!
Добавить




600 миль / 600 Millas (2015) BDRip | А скачать торрент бесплатно

Опубликовал: Админ | Дата: 2-10-2016, 05:00 | Просмотров: 302



600 миль / 600 Miles / 600 Millas
Снималось в: МексикаСША
Создали в: Lucia Films
Создали в: 2015
Категория жанра: триллер, драма
Время просмотра: 01: 20: 28
Главный режиссер: Гэбриел Рипштейн
Авторы сценария: Гэбриел Рипштейн, Исса Лопес

Актеры
Тим Рот, Кристиан Феррер, Моника дель Кармен, Крэйг Хенсли, Харрис Кендалл, Грег Лутс, Фаусто Олмос Рентерия
Описание: Агент по борьбе с незаконным оборотом алкоголя, табака и оружия Хэнк Харрис преследует Арнульфо Рубио — молодого человека, который торгует оружием между США и Мексикой. После того, как Харрис допускает грубую ошибку, Рубио принимает отчаянное решение: он похищает агента и увозит его в Мексику. И пока двое явных врагов медленно сближаются, их поджидает опасность. Единственный выход из ситуации — доверять друг другу...

Перевод текста: Авторский (одноголосый, закадровый) | Антон Карповский
Субтитры: нет
Качество фильма: BDRip | исходникBlu-Ray (FRA) - 600.Miles.2015.COMPLETE.FR.BLURAY
Тип видео: АVI
Информация о видео кодек: XviD
Информация о звуке кодек: АС3
Информация о видео: 720x384 (1.85: 1), 25.000 fps, XviD build 67 ~1 967 kbps avg, 0.285 bit/pixel
Информация о звуке: 48 kHz, AC3 Dolby Digital, 3/2 (L, C, R, l, r) + LFE ch, ~448 kbps
Дата премьеры (мир): 6 февраля 2015 ВНИМАНИЕ! Присутствует
ненормативная лексика


Релиз подготовил: ylnian
Сборка дороги: rammzez
Media Info
General
Полное имя : 600.Millas.2015.BDRip-ylnian.avi
Формат : AVI
Формат/Информация : Audio Video Interleave
Размер файла : 1, 36 Гбайт
Продолжительность : 1 ч. 20 м.
Общий поток : 2424 Кбит/сек
Программа кодирования : VirtualDubMod 1.5.10.2 (build 2540/release)
Библиотека кодирования : VirtualDubMod build 2540/release
Видео
Идентификатор : 0
Формат : MPEG-4 Visual
Профиль формата : Advanced Simple@L5
Параметр BVOP формата : 1
Параметр QPel формата : Нет
Параметр GMC формата : Без точки перехода
Параметр матрицы формата : Default (MPEG)
Идентификатор кодека : XVID
Идентификатор кодека/Подсказка : XviD
Продолжительность : 1 ч. 20 м.
Битрейт : 1967 Кбит/сек
Ширина : 720 пикселей
Высота : 384 пикселя
Соотношение сторон : 1, 85: 1
Частота кадров : 25, 000 кадров/сек
Цветовое пространство : YUV
Субдискретизация насыщенности : 4: 2: 0
Битовая глубина : 8 бит
Тип развёртки : Прогрессивная
Метод сжатия : С потерями
Бит/(Пиксели*Кадры) : 0.285
Размер потока : 1, 11 Гбайт (81%)
Библиотека кодирования : XviD 67
Аудио
Идентификатор : 1
Формат : AC-3
Формат/Информация : Audio Coding 3
Расширение режима : CM (complete main)
Параметр Endianness формата : Big
Идентификатор кодека : 2000
Продолжительность : 1 ч. 20 м.
Вид битрейта : Постоянный
Битрейт : 448 Кбит/сек
Каналы : 6 каналов
Расположение каналов : Front: L C R, Side: L R, LFE
Частота : 48, 0 КГц
Частота кадров : 31, 250 кадров/сек (1536 spf)
Метод сжатия : С потерями
Размер потока : 258 Мбайт (18%)
Выравнивание : Разделение по промежуткам
Продолжительность промежутка : 40 мс. (1, 00 видеокадр)
Время предзагрузки промежутка : 500 мс.
Заголовок : RUS - AVO - Karpovsky
Скриншоты

Залил: Zha-4k-e

Онлайн видео 600 миль


Размер скачиваемого торрента: 1.36 GB (1463054336 Bytes)

600 миль/600 Millas (2015) BDRip | А
загрузка...
Рейтинг →
 (голосов: 1, оценка 3/5, голосовать можно 1 раз )

Другие торренты по теме:

  • 600 миль / 600 Millas (2015) BDRemux 1080p от ExKinoRay | А


    • Комментарии (0):

      Информация

      Информация

        Посетители, находящиеся в группе Гости, не могут оставлять комментарии в данной новости.

        ↓ Меню



        ↓ Опрос

        А Вы добавили сайт в закладки?
        Да
        Не


        Top 10 за месяц (Фильмы)