.
Авторизация | Регистрация
Хочешь лучшие торренты? Добавь свой email!
Добавить




Бармен (2015) DVD5 скачать торрент бесплатно

Опубликовал: Админ | Дата: 25-09-2016, 05:02 | Просмотров: 43



Детально о кино
Русское название: Бармен
Создали в: 2015
Категория жанра: комедия, фэнтези
Главный режиссер: Дина Штурманова

Актеры
Виталий Гогунский, Иван Охлобыстин, Юлия Паршута, Юрий Стоянов, Жанна Эппле, Константин Крюков, Антон Богданов, Ольга Бузова, Евгения Ярушникова, Константин Федоров

Сюжет фильма

Вадик мечтает изменить свою скучную жизнь, но страх неудачи и неуверенность в себе мешают парню двигаться к цели. Все меняется, когда Вадик случайно забредает в пустой бар и выпивает коктейль по рецепту загадочного Бармена. Отныне он — мистер Харизма, и весь мир лежит у его ног. Даже красавица Юля, о которой раньше он не смел и мечтать, обратила на него внимание. Новый коктейль — новый талант: сегодня Вадик — интеллектуал, завтра — король танцпола… Вот только действуют волшебные напитки недолго и имеют не очень приятный побочный эффект…

Снималось в: Россия
Киностудия: Art Pictures Studio, ВайТ Медиа
Время просмотра: 88 мин./01: 28
Перевод текста: не требуется
Файл
Кодек для видео: MPEG2
Качество фильма: DVD5 (сжатый)
Информация о видео: PAL 16: 9 (720x576@1024x576) VBR 6491 Kbps, 25.000 fps
Информация о звуке: Dolby AC3, 6 ch, 48.0 KHz, 448 Kbps
Субтитры: отсутствуют
Процесс изготовления диска
Исходник: Бармен (2015) DVD9 | лицензия
Удалены: предупреждающая надпись, фильм о фильме, часть анонсов (в меню кнопки затерты). Команды диска переписаны заново, оставлены три VTS.
Информация о видео не сжималось!
Меню: статичное, недействующие кнопки затерты и закрыты.
Обработка и сжатие: DVD ReMake Pro + DVD Rebuilder + CCE SP2 7 проходов + Работа с меню (Adobe PhotoShop и MuxMan).
Автор релиза: J9-1000
MediaInfo
Общее
Полное имя : D: Бармен (2015) DVD5VIDEO_TSVTS_03_1.VOB
Формат : MPEG-PS
Размер файла : 1024 Мбайт
Продолжительность : 20 м.
Режим общего битрейта : Переменный
Общий поток : 7080 Кбит/сек
Видео
Идентификатор : 224 (0xE0)
Формат : MPEG Video
Версия формата : Version 2
Профиль формата : Main@Main
Параметр BVOP формата : Да
Параметр матрицы формата : По умолчанию
Параметр GOP формата : M=3, N=12
Продолжительность : 20 м.
Вид битрейта : Переменный
Битрейт : 6491 Кбит/сек
Максимальный битрейт : 8500 Кбит/сек
Ширина : 720 пикселей
Высота : 576 пикселей
Соотношение сторон : 16: 9
Частота кадров : 25, 000 кадров/сек
Стандарт вещания : PAL
Цветовое пространство : YUV
Субдискретизация насыщенности : 4: 2: 0
Битовая глубина : 8 бит
Тип развёртки : Прогрессивная
Метод сжатия : С потерями
Бит/(Пиксели*Кадры) : 0.626
Временной код первого кадра : 00: 00: 00: 00
Оригинал временного кода : Group of pictures t_head
GOP, открыто/закрыто : Открыто
GOP, открыто/закрыто на первом кадре : Закрыто
Размер потока : 939 Мбайт (92%)
Аудио
Идентификатор : 189 (0xBD)-128 (0x80)
Формат : AC-3
Формат/Информация : Audio Coding 3
Расширение режима : CM (complete main)
Параметр Endianness формата : Big
Режим смешивания : DVD-Video
Продолжительность : 20 м.
Вид битрейта : Постоянный
Битрейт : 448 Кбит/сек
Каналы : 6 каналов
Расположение каналов : Front: L C R, Side: L R, LFE
Частота : 48, 0 КГц
Частота кадров : 31, 250 кадров/сек (1536 spf)
Метод сжатия : С потерями
Размер потока : 64, 8 Мбайт (6%)
Меню
Скриншоты

Залил: carisha

Онлайн видео Призрак на двоих (2016) WEB


Размер скачиваемого торрента: 4.37 GB (4696145920 Bytes)

Бармен (2015) DVD5
загрузка...
Рейтинг →
 (голосов: 1, оценка 4/5, голосовать можно 1 раз )

Другие торренты по теме:

  • Бармен (2015)
  • Бармен (2015) DVDRip | Лицензия
  • Бармен (2015) DVDRip | Лицензия
  • Бармен (2015) DVDRip от Kaztorrents | КПК | Лицензия


    • Комментарии (0):

      Информация

      Информация

        Посетители, находящиеся в группе Гости, не могут оставлять комментарии в данной новости.

        ↓ Меню



        ↓ Опрос

        А Вы добавили сайт в закладки?
        Да
        Не


        Top 10 за месяц (Фильмы)