.
Авторизация | Регистрация
Хочешь лучшие торренты? Добавь свой email!
Добавить
» » Темнота / The Darkness (2016) DVD-5 от NovaLan| L скачать торрент бесплатно




    Темнота / The Darkness (2016) DVD-5 от NovaLan| L скачать торрент бесплатно

    Опубликовал: Админ | Дата: 25-09-2016, 05:02 | Просмотров: 42



    Детально о кино
    Русское название: Темнота
    Русское название в мировом прокате: The Darkness
    Создали в: 2016
    Категория жанра: Ужасы
    Главный режиссер: Грег МакЛин

    Актеры
    Дженнифер Моррисон, Люси Фрай, Кевин Бэйкон, Рада Митчелл, Минг-На, Дэвид Мазоуз, Мэтт Уолш, Тара Барр, Пол Райзер, Ильза Розарио
    Описание: После отпуска в Гранд-Каньоне семья возвращается домой, невольно прихватив с собой нечто сверхъестественное. Не заставив себя долго ждать, это нечто начинает питаться их страхами и секретами…
    Снималось в: США
    Киностудия: Blumhouse Productions, Chapter One Films
    Время просмотра: 01: 32: 16
    Перевод текста: Любительский многоголосый
    Файл
    Кодек для видео: MPEG-2
    Качество фильма: DVD-5
    Информация о видео: MPEG2, NTSC 16: 9 (720x480@853x480) VBR, 29, 970 кадра/сек
    Информация о звуке: Русский/Английский/Французский DD 5.1 (448 Kbps)

    Меню
    DVDInfo

    Title:
    Size: 4.37 Gb ( 4 577 710 KBytes ) - DVD-5
    Enabled regions: 1, 2, 3, 4, 5, 6, 7, 8
    VTS_01 :
    Play Length: 01: 32: 16
    Video: NTSC 16: 9 (720x480) VBR, Auto PanScan
    Audio:
    Russian (Dolby AC3, 6 ch)
    English (Dolby AC3, 6 ch)
    Francais (Dolby AC3, 6 ch)
    Menu Video:
    NTSC 4: 3 (704x480) VBR
    Menu English Language Unit :
    Root Menu
    MediaInfo

    Общее
    Полное имя : D: ААА2ТЕМНОТАVIDEO_TSVTS_01_1.VOB
    Формат : MPEG-PS
    Размер файла : 1024 Мбайт
    Продолжительность : 19 м.
    Режим общего битрейта : Переменный
    Общий поток : 7222 Кбит/сек
    Библиотека кодирования : Created by Nero
    Видео
    Идентификатор : 224 (0xE0)
    Формат : MPEG Video
    Версия формата : Version 2
    Профиль формата : Main@Main
    Параметр BVOP формата : Да
    Параметр матрицы формата : Выборочная
    Параметр GOP формата : Variable
    Продолжительность : 19 м.
    Вид битрейта : Переменный
    Битрейт : 5734 Кбит/сек
    Максимальный битрейт : 9448 Кбит/сек
    Ширина : 720 пикселей
    Высота : 480 пикселей
    Соотношение сторон : 16: 9
    Частота кадров : 29, 970 кадров/сек
    Стандарт вещания : NTSC
    Цветовое пространство : YUV
    Субдискретизация насыщенности : 4: 2: 0
    Битовая глубина : 8 бит
    Тип развёртки : Прогрессивная
    Порядок развёртки : Нижнее поле первое
    Метод сжатия : С потерями
    Бит/(Пиксели*Кадры) : 0.554
    TimeCode_FirstFrame : 00: 00: 00: 00
    TimeCode_Source : Group of pictures t_head
    Размер потока : 813 Мбайт (79%)
    Библиотека кодирования : Created by Nero
    Аудио #1
    Идентификатор : 189 (0xBD)-128 (0x80)
    Формат : AC-3
    Формат/Информация : Audio Coding 3
    Расширение режима : CM (complete main)
    Параметр Endianness формата : Big
    Режим смешивания : DVD-Video
    Продолжительность : 19 м.
    Вид битрейта : Постоянный
    Битрейт : 448 Кбит/сек
    Каналы : 6 каналов
    Расположение каналов : Front: L C R, Side: L R, LFE
    Частота : 48, 0 КГц
    Битовая глубина : 16 бит
    Метод сжатия : С потерями
    Размер потока : 63, 5 Мбайт (6%)
    Аудио #2
    Идентификатор : 189 (0xBD)-129 (0x81)
    Формат : AC-3
    Формат/Информация : Audio Coding 3
    Расширение режима : CM (complete main)
    Параметр Endianness формата : Big
    Режим смешивания : DVD-Video
    Продолжительность : 19 м.
    Вид битрейта : Постоянный
    Битрейт : 448 Кбит/сек
    Каналы : 6 каналов
    Расположение каналов : Front: L C R, Side: L R, LFE
    Частота : 48, 0 КГц
    Битовая глубина : 16 бит
    Метод сжатия : С потерями
    Размер потока : 63, 5 Мбайт (6%)
    Аудио #3
    Идентификатор : 189 (0xBD)-130 (0x82)
    Формат : AC-3
    Формат/Информация : Audio Coding 3
    Расширение режима : CM (complete main)
    Параметр Endianness формата : Big
    Режим смешивания : DVD-Video
    Продолжительность : 19 м.
    Вид битрейта : Постоянный
    Битрейт : 448 Кбит/сек
    Каналы : 6 каналов
    Расположение каналов : Front: L C R, Side: L R, LFE
    Частота : 48, 0 КГц
    Битовая глубина : 16 бит
    Метод сжатия : С потерями
    Размер потока : 63, 5 Мбайт (6%)
    Меню
    Скриншоты



    Релиз:
    Залил: YArl

    Онлайн видео Темнота


    Размер скачиваемого торрента: 4.37 GB (4687575040 Bytes)

    Темнота/The Darkness (2016) DVD-5 от NovaLan| L
    загрузка...
    Рейтинг →
     (голосов: 1, оценка 4/5, голосовать можно 1 раз )

    Другие торренты по теме:

  • Темнота наступает / Darkness Falls (2003) BDRip | D
  • Темнота наступает / Darkness Falls (2003) BDRip 720p | D, P, P2
  • Темнота / The Darkness (2016) HDRip | L2
  • Темнота / The Darkness (2016) HDRip от Portablius | L2
  • Темнота / The Darkness (2016) BDRip 720p | L2
  • Темнота / The Darkness (2016) BDRip 1080p от ExKinoRay | L
  • Темнота / The Darkness (2016) HDRip от MegaPeer | L
  • Темнота / The Darkness (2016) HDRip от MegaPeer | L


    • Комментарии (0):

      Информация

      Информация

        Посетители, находящиеся в группе Гости, не могут оставлять комментарии в данной новости.

        ↓ Меню



        ↓ Опрос

        А Вы добавили сайт в закладки?
        Да
        Не


        Top 10 за месяц (Фильмы)