.
Авторизация | Регистрация
Хочешь лучшие торренты? Добавь свой email!
Добавить
» » Свидание на одну ночь / One Night Stand (1997) WEB-DL 720p от MegaPeer | P, P2 скачать торрент бесплатно




    Свидание на одну ночь / One Night Stand (1997) WEB-DL 720p от MegaPeer | P, P2 скачать торрент бесплатно

    Опубликовал: Админ | Дата: 25-09-2016, 05:00 | Просмотров: 27



    Русское название: Свидание на одну ночь
    Русское название в мировом прокате: One Night Stand
    Создали в: 1997
    Категория жанра: Мелодрама
    Главный режиссер: Майк Фиггис

    Актеры
    Уэсли Снайпс, Настасья Кински, Кайл МакЛахлэн, Минг-На Уэн, Роберт Дауни мл., Джулиан Сэндс, Ксандер Беркли, Айони Скай, Аманда Донохью, Сьюзан Барнс, Гленн Пламмер, Грета Гэйнс, Аннабель Гурвич, Маркус Полк, Джон Ратценбергер, Винсент Уорд

    Сюжет фильма
    Приехав в Нью-Йорк, Макс обращает внимание на красивую женщину, Карен. Следующей ночью они оказываются вместе в постеле. Утром Макс возвращается в Лос-Анджелес, но не может забыть Карен. Он ссорится с коллегами по работе и со своей женой Мими. Спустя год Макс возвращается в Нью-Йорк, чтобы навестить умирающего от СПИДа друга Чарли. В больнице он встречается с его братом Верноном, который оказывается мужем Карен. Когда из Лос-Анджелеса приезжает Мими, обе пары договариваются поужинать вместе. Вернон и Мими оживлённо болтают, а Макс и Карен едва обмениваются словами. Но в один из визитов в больницу Макс встречает Карен, и Чарли, проснувшись, видит, как они целуются. Чарли умирает. После поминок Макс и Карен устремляются в пляжный домик, чтобы заняться любовью, и застают там Вернона и Мими. Ровно через год эти четверо встречаются вновь. Когда они разъежаются, выясняется, что Вернон теперь с Мими, а Макс — с Карен.

    Снималось в: США, New Line Cinema, Red Mullet Productions
    Время просмотра: 01: 43: 00
    Перевод текста: Профессиональный многоголосый, профессиональный двухголосый
    Качество фильма: WEB-DL 720p
    Информация о видео: MPEG-4 AVC, 4112 Кбит/с, 1280х718
    Информация о звуке #1: Русский (AC3, 6 ch, 448 Кбит/с) Профессиональный многоголосый
    Информация о звуке #2: Русский (AC3, 2 ch, 192 Кбит/с) Профессиональный двухголосный
    Информация о звуке #3: Украинский (AC3, 2 ch, 192 Кбит/с) Профессиональный многоголосый
    Информация о звуке #4: Английский (AC3, 6 ch, 448 Кбит/с) Оригинал
    Субтитры: Русские, английские
    Главы: Есть
    MI:
    Общее
    Уникальный идентификатор : 194744838565748484894589887472205415908 (0x92827DDA35A451B99BA5FDBF3FF9C5E4)
    Полное имя : D: РелизыOne.Night.Stand.1997.720p.MegaPeer.org.mkv
    Формат : Matroska
    Версия формата : Version 4/Version 2
    Размер файла : 3, 96 Гбайт
    Продолжительность : 1 ч. 43 м.
    Общий поток : 5502 Кбит/сек
    Название фильма : One Night Stand (1997)
    Дата кодирования : UTC 2016-09-23 07: 53: 27
    Программа кодирования : mkvmerge v6.7.0 (;Back to the Ground;) 64bit built on Jan 8 2014 15: 10: 52
    Библиотека кодирования : libebml v1.3.0 + libmatroska v1.4.1
    Видео
    Идентификатор : 1
    Формат : AVC
    Формат/Информация : Advanced Video Codec
    Профиль формата : High@L3.1
    Параметр CABAC формата : Нет
    Параметр ReFrames формата : 2 кадра
    Идентификатор кодека : V_MPEG4/ISO/AVC
    Продолжительность : 1 ч. 43 м.
    Битрейт : 4112 Кбит/сек
    Ширина : 1280 пикселей
    Высота : 718 пикселей
    Соотношение сторон : 16: 9
    Режим частоты кадров : Постоянный
    Частота кадров : 23, 976 кадра/сек
    Цветовое пространство : YUV
    Субдискретизация насыщенности : 4: 2: 0
    Битовая глубина : 8 бит
    Тип развёртки : Прогрессивная
    Бит/(Пиксели*Кадры) : 0.187
    Размер потока : 2, 96 Гбайт (75%)
    Язык : English
    Default : Нет
    Forced : Нет
    colour_range : Limited
    Основные цвета : BT.709
    Характеристики трансфера : BT.709
    Коэффициенты матрицы : BT.709
    Аудио #1
    Идентификатор : 2
    Формат : AC-3
    Формат/Информация : Audio Coding 3
    Расширение режима : CM (complete main)
    Параметр Endianness формата : Big
    Идентификатор кодека : A_AC3
    Продолжительность : 1 ч. 43 м.
    Вид битрейта : Постоянный
    Битрейт : 448 Кбит/сек
    Каналы : 6 каналов
    Расположение каналов : Front: L C R, Side: L R, LFE
    Частота : 48, 0 КГц
    Метод сжатия : С потерями
    Размер потока : 330 Мбайт (8%)
    Заголовок : AC3, 6 ch, 448 Kbps, MVO
    Язык : Russian
    Default : Да
    Forced : Нет
    Аудио #2
    Идентификатор : 3
    Формат : AC-3
    Формат/Информация : Audio Coding 3
    Расширение режима : CM (complete main)
    Параметр Endianness формата : Big
    Идентификатор кодека : A_AC3
    Продолжительность : 1 ч. 43 м.
    Вид битрейта : Постоянный
    Битрейт : 192 Кбит/сек
    Каналы : 2 канала
    Расположение каналов : Front: L R
    Частота : 48, 0 КГц
    Метод сжатия : С потерями
    Размер потока : 141 Мбайт (3%)
    Заголовок : AC3, 2 ch, 192 Kbps, DVO
    Язык : Russian
    Default : Нет
    Forced : Нет
    Аудио #3
    Идентификатор : 4
    Формат : AC-3
    Формат/Информация : Audio Coding 3
    Расширение режима : CM (complete main)
    Параметр Endianness формата : Big
    Идентификатор кодека : A_AC3
    Продолжительность : 1 ч. 43 м.
    Вид битрейта : Постоянный
    Битрейт : 192 Кбит/сек
    Каналы : 2 канала
    Расположение каналов : Front: L R
    Частота : 48, 0 КГц
    Метод сжатия : С потерями
    Размер потока : 141 Мбайт (3%)
    Заголовок : AC3, 2 ch, 192 Kbps, Ukrainian
    Язык : Ukrainian
    Default : Нет
    Forced : Нет
    Аудио #4
    Идентификатор : 5
    Формат : AC-3
    Формат/Информация : Audio Coding 3
    Расширение режима : CM (complete main)
    Параметр Endianness формата : Big
    Идентификатор кодека : A_AC3
    Продолжительность : 1 ч. 43 м.
    Вид битрейта : Постоянный
    Битрейт : 448 Кбит/сек
    Каналы : 6 каналов
    Расположение каналов : Front: L C R, Side: L R, LFE
    Частота : 48, 0 КГц
    Метод сжатия : С потерями
    Размер потока : 330 Мбайт (8%)
    Заголовок : AC3, 6 ch, 448 Kbps, Original
    Язык : English
    Default : Нет
    Forced : Нет
    Текст #1
    Идентификатор : 6
    Формат : UTF-8
    Идентификатор кодека : S_TEXT/UTF8
    Идентификатор кодека/Информация : UTF-8 Plain Text
    Язык : Russian
    Default : Нет
    Forced : Нет
    Текст #2
    Идентификатор : 7
    Формат : UTF-8
    Идентификатор кодека : S_TEXT/UTF8
    Идентификатор кодека/Информация : UTF-8 Plain Text
    Язык : English
    Default : Нет
    Forced : Нет
    Меню
    00: 00: 00.150 : en: Studio Logos
    00: 00: 15.127 : en: Max Introduces Himself; Street
    00: 02: 07.291 : en: Charlie Works on His Production, Opening Credits; Dance Studio
    00: 04: 51.456 : en: Charlie and Max Talk about Money and Family; Caf?©
    00: 07: 36.549 : en: Max and His Friends Talk; Restaurant
    00: 09: 09.629 : en: Max Waits for His Group; Restaurant
    00: 10: 29.722 : en: Max Meets Karen; Restaurant
    00: 12: 02.859 : en: Max Changes His Shirt; Hotel Room
    00: 14: 19.901 : en: Max Looks for His Friends; Hotel
    00: 15: 01.101 : en: Max Runs into Gridlock in Downtown; NYC
    00: 16: 48.121 : en: Max Changes His Plans; Concert Hall
    00: 20: 06.132 : en: Max and Karen Get Drinks; Bar
    00: 22: 00.144 : en: Max and Karen Run into Trouble; Street
    00: 23: 55.150 : en: Max Takes Care of Karen
    00: 24: 59.164 : en: Karen Asks Max to Stay; Hotel Room
    00: 27: 24.189 : en: Max Comforts Karen; Bedroom
    00: 31: 31.198 : en: Max Heads Home; Plane
    00: 32: 55.205 : en: Max and Mimi Talk on Their Drive Home; Car
    00: 34: 12.215 : en: The Dog Smells Something Funny; Dining Table
    00: 35: 51.247 : en: Mimi Comes On to Max; Living room
    00: 41: 11.266 : en: Max Has Trouble Readjusting
    00: 44: 24.273 : en: Max Shoots an Armani Video; Studio
    00: 45: 28.277 : en: Max Shares His Video; Studio
    00: 46: 10.300 : en: The Group Has Dinner; Carlyle House
    00: 49: 58.319 : en: Max and Mimi Argue; Carlyle House
    00: 53: 11.342 : en: Max Visits Charlie; Hospital
    00: 57: 00.359 : en: Max and Charlie Talk; Hospital
    00: 59: 49.367 : en: Max Meets Charlie;s Friends; Hospital
    01: 01: 11.375 : en: Max and Karen Meet Again; Hospital
    01: 02: 25.389 : en: Max Visits Charlie at 5: 45; Hospital
    01: 04: 53.406 : en: Max and Mimi Visit Charlie; Charlie;s Room
    01: 07: 38.436 : en: The Couples Have Dinner; Sushi Bar
    01: 12: 40.442 : en: Charlie;s Condition Worsens; Hospital
    01: 13: 39.448 : en: Max Sees Charlie;s Father; Hospital
    01: 14: 43.486 : en: Max and Karen Talk; Charlie;s room
    01: 20: 57.510 : en: Max Asks for Charlie;s Advice; Hospital
    01: 24: 57.520 : en: Friends and Family Attend Charlie;s Funeral; Church
    01: 26: 43.542 : en: Friends and Family Celebrate Charlie;s Life; House
    01: 30: 20.556 : en: Max Has a Vision of Charlie; Charlie;s Party
    01: 32: 40.566 : en: Max and Karen Rekindle Their Feelings; Shed
    01: 34: 24.596 : en: The Couples Have Dinner Again; Sushi Restaurant
    01: 39: 17.618 : en: End Credits

    Релиз: MegaPeer


    Онлайн видео Свидание на одну ночь


    Размер скачиваемого торрента: 3.96 GB (4250198490 Bytes)

    Свидание на одну ночь/One Night Stand (1997) WEB-DL 720p от MegaPeer | P, P2
    загрузка...
    Рейтинг →
     (голосов: 1, оценка 4/5, голосовать можно 1 раз )

    Другие торренты по теме:

  • Свидание на одну ночь / One Night Stand (1997) WEB-DLRip от MegaPeer | P, P2


    • Комментарии (0):

      Информация

      Информация

        Посетители, находящиеся в группе Гости, не могут оставлять комментарии в данной новости.

        ↓ Меню



        ↓ Опрос

        А Вы добавили сайт в закладки?
        Да
        Не


        Top 10 за месяц (Фильмы)