.
Авторизация | Регистрация
Хочешь лучшие торренты? Добавь свой email!
Добавить
» » Ангар 18 / Hangar 18 (1980) BDRemux 1080p от New-Team | D, P2, A скачать торрент бесплатно




    Ангар 18 / Hangar 18 (1980) BDRemux 1080p от New-Team | D, P2, A скачать торрент бесплатно

    Опубликовал: Админ | Дата: 21-09-2016, 05:00 | Просмотров: 55


    It started with an accident in space . . . and led to the terrifying secret in . . . HANGAR 18

    Снималось в: США/Sunn Classic Pictures Inc.
    Категория жанра: фантастика, боевик, триллер, биография
    Создали в: 1980
    Время просмотра: 01: 37: 30
    Перевод текста:
    Профессиональный (дублированный) - Советский дубляж (со вставками двухголосого закадрового)
    Профессиональный (двухгоголосый, закадровый) : НТВ+
    Авторский (одноголосый) : Юрий Сербин
    Субтитры подготовлены: нет
    Оригинальная аудиодорожка: английский
    Главный режиссер: Джеймс Л. Конуэй/James L. Conway

    Актеры
    Гари Коллинз, Роберт Вон, Джеймс Хэмптон, Филип Эбботт, Джозеф Кампанелла, Памела Беллвуд, Том Хэллик, Стивен Китс, Уильям Шэллерт, Дэррен МакГэвин...
    Роли дублировали: Игорь Окрепилов, Александр Демьяненко, Вячеслав Захаров, Юрий Дедович, Владимир Татосов...
    Описание: Во время запуска спутника с космического челнока NASA происходит катастрофа, в результате которой погибает один из астронавтов. Как потом выясняется, причиной взрыва становится столкновение спутника с НЛО. Неопознанный объект совершает аварийную посадку на Земле и попадает в руки спецслужб правительства. Небольшая группа военных и политиков, опасающихся ненужной и рискованной шумихи вокруг этого ЧП накануне президентских выборов, делают все, чтобы сохранить происшествие в тайне. Вернувшихся на землю астронавтов изолируют, а НЛО отправляют для исследований на военную базу и прячут в ангаре под №18. Но друзья погибшего астронавта пытаются узнать правду о загадочном объекте, встреченном на орбите, и не хотят сидеть сложа руки, и предпринимают собственное и весьма рискованное расследование...
    В 80-х годах этот фильм демонстрировался в кинотеатрах по всему СССР и снискал большую популярность у зрителей.



    Качество фильма: BDRemux 1080p / Blu-ray 1080p
    Тип видео: MKV
    Информация о видео: 1920x1080, MPEG-4 AVC Video 26984 kbps 1080p/23, 976 fps/16: 9/High Profile 4.1
    Информация о звуке 1: 48 kHz, Dolby AC3, 2 ch, 192 kbps, русский дублированный
    Информация о звуке 2: 48 kHz, Dolby AC3, 2 ch, 192 kbps, русский двухгоголосый
    Информация о звуке 3: 48 kHz, Dolby AC3, 2 ch, 192 kbps, русский авторский
    Информация о звуке 4: DTS-HD Master Audio English 869 kbps 1.0/48 kHz/869 kbps/16-bit (DTS Core: 1.0/48 kHz/768 kbps/16-bit), английский
    Информация о звуке 5: 48 kHz, Dolby AC3, 2 ch, 192 kbps, английский
    Дополнительно: Фильм разбит на главы, как на оригинальном Blu-ray диске
    Раздача от:
    MediaInfo

    Общее
    Полное имя : Angar.18.1980.D.BDRemux.1080p_New-Team_by_avproh.mkv
    Формат : Matroska
    Версия формата : Version 4/Version 2
    Размер файла : 19, 5 Гбайт
    Продолжительность : 1 ч. 37 м.
    Режим общего битрейта : Переменный
    Общий поток : 28, 6 Мбит/сек
    Дата кодирования : UTC 2014-02-14 20: 52: 12
    Программа кодирования : mkvmerge v6.7.0 (;Back to the Ground;) 64bit built on Jan 8 2014 15: 10: 52
    Библиотека кодирования : libebml v1.3.0 + libmatroska v1.4.1
    Видео
    Идентификатор : 1
    Формат : AVC
    Формат/Информация : Advanced Video Codec
    Профиль формата : High@L4.1
    Параметр CABAC формата : Да
    Параметр ReFrames формата : 4 кадра
    Параметр GOP формата : M=3, N=24
    Идентификатор кодека : V_MPEG4/ISO/AVC
    Продолжительность : 1 ч. 37 м.
    Вид битрейта : Переменный
    Максимальный битрейт : 33, 5 Мбит/сек
    Ширина : 1920 пикселей
    Высота : 1080 пикселей
    Соотношение сторон : 16: 9
    Режим частоты кадров : Постоянный
    Частота кадров : 23, 976 кадра/сек
    Стандарт вещания : NTSC
    Цветовое пространство : YUV
    Субдискретизация насыщенности : 4: 2: 0
    Битовая глубина : 8 бит
    Тип развёртки : Прогрессивная
    Язык : English
    Default : Да
    Forced : Нет
    Основные цвета : BT.709
    Характеристики трансфера : BT.709
    Коэффициенты матрицы : BT.709
    Аудио #1
    Идентификатор : 2
    Формат : AC-3
    Формат/Информация : Audio Coding 3
    Расширение режима : CM (complete main)
    Параметр Endianness формата : Big
    Идентификатор кодека : A_AC3
    Продолжительность : 1 ч. 37 м.
    Вид битрейта : Постоянный
    Битрейт : 192 Кбит/сек
    Каналы : 2 канала
    Расположение каналов : Front: L R
    Частота : 48, 0 КГц
    Битовая глубина : 16 бит
    Метод сжатия : С потерями
    Размер потока : 134 Мбайт (1%)
    Заголовок : DUB
    Язык : Russian
    Default : Да
    Forced : Нет
    Аудио #2
    Идентификатор : 3
    Формат : AC-3
    Формат/Информация : Audio Coding 3
    Расширение режима : CM (complete main)
    Параметр Endianness формата : Big
    Идентификатор кодека : A_AC3
    Продолжительность : 1 ч. 37 м.
    Вид битрейта : Постоянный
    Битрейт : 192 Кбит/сек
    Каналы : 2 канала
    Расположение каналов : Front: L R
    Частота : 48, 0 КГц
    Битовая глубина : 16 бит
    Метод сжатия : С потерями
    Размер потока : 134 Мбайт (1%)
    Заголовок : DVO NTV+
    Язык : Russian
    Default : Нет
    Forced : Нет
    Аудио #3
    Идентификатор : 4
    Формат : AC-3
    Формат/Информация : Audio Coding 3
    Расширение режима : CM (complete main)
    Параметр Endianness формата : Big
    Идентификатор кодека : A_AC3
    Продолжительность : 1 ч. 37 м.
    Вид битрейта : Постоянный
    Битрейт : 192 Кбит/сек
    Каналы : 2 канала
    Расположение каналов : Front: L R
    Частота : 48, 0 КГц
    Битовая глубина : 16 бит
    Метод сжатия : С потерями
    Размер потока : 134 Мбайт (1%)
    Заголовок : AVO Serbin
    Язык : Russian
    Default : Нет
    Forced : Нет
    Аудио #4
    Идентификатор : 5
    Формат : DTS
    Формат/Информация : Digital Theater Systems
    Профиль формата : MA/Core
    Режим : 16
    Параметр Endianness формата : Big
    Идентификатор кодека : A_DTS
    Продолжительность : 1 ч. 37 м.
    Вид битрейта : Переменный
    Битрейт : Неизвестно/768 Кбит/сек
    Каналы : 1 канал
    Расположение каналов : Front: C
    Частота : 48, 0 КГц
    Битовая глубина : 16 бит
    Метод сжатия : Без потерь/Lossy
    Язык : English
    Default : Нет
    Forced : Нет
    Аудио #5
    Идентификатор : 6
    Формат : AC-3
    Формат/Информация : Audio Coding 3
    Расширение режима : CM (complete main)
    Параметр Endianness формата : Big
    Идентификатор кодека : A_AC3
    Продолжительность : 1 ч. 37 м.
    Вид битрейта : Постоянный
    Битрейт : 192 Кбит/сек
    Каналы : 2 канала
    Расположение каналов : Front: L R
    Частота : 48, 0 КГц
    Битовая глубина : 16 бит
    Метод сжатия : С потерями
    Размер потока : 134 Мбайт (1%)
    Язык : English
    Default : Нет
    Forced : Нет
    Меню
    00: 00: 00.000 : en: 00: 00: 00.000
    00: 09: 18.475 : en: 00: 09: 18.475
    00: 22: 47.199 : en: 00: 22: 47.199
    00: 36: 22.555 : en: 00: 36: 22.555
    00: 45: 44.408 : en: 00: 45: 44.408
    01: 00: 58.780 : en: 01: 00: 58.780
    01: 10: 01.406 : en: 01: 10: 01.406
    01: 17: 40.739 : en: 01: 17: 40.739

    Скриншоты:



    Резервные скриншоты:



    Залил: avproh

    Онлайн видео Ангар 18


    Размер скачиваемого торрента: 19.49 GB (20930391587 Bytes)

    Ангар 18/Hangar 18 (1980) BDRemux 1080p от New-Team | D, P2, A
    загрузка...
    Рейтинг →
     (голосов: 1, оценка 5/5, голосовать можно 1 раз )

    Другие торренты по теме:

  • Ангар 18 / Hangar 18 (1980) SATRip | НТВ скачать через торрент бесплатно
  • Ангар 18 / Hangar 18 (1980) BDRip 720p от New-Team | D, P2, A
  • Ангар 18 / Hangar 18 (1980) BDRip-AVC от New-Team | D
  • Ангар 18 / Hangar 18 (1980) DVDRip от New-Team | D, P2, A
  • Ангар 18 / Hangar 18 (1980) DVDRip от New-Team | D
  • Ангар 18 / Hangar 18 (1980) BDRip от New-Team | D
  • Ангар 18 / Hangar 18 (1980) BDRip-AVC от New-Team | D, P2, A скачать через торрент бесплатно
  • Ангар 18 / Hangar 18 (1980) BDRip 1080p от New-Team | D, P2, A


    • Комментарии (0):

      Информация

      Информация

        Посетители, находящиеся в группе Гости, не могут оставлять комментарии в данной новости.

        ↓ Меню



        ↓ Опрос

        А Вы добавили сайт в закладки?
        Да
        Не


        Top 10 за месяц (Фильмы)