.
Авторизация | Регистрация
Хочешь лучшие торренты? Добавь свой email!
Добавить
» » Разрушение / Demolition (2015) BDRip 720p от Scarabey | Лицензия скачать торрент бесплатно




    Разрушение / Demolition (2015) BDRip 720p от Scarabey | Лицензия скачать торрент бесплатно

    Опубликовал: Админ | Дата: 19-09-2016, 05:01 | Просмотров: 10328



    Создали в: 2015
    Снималось в: США
    Категория жанра: драма, комедия
    Время просмотра: 01: 41: 23
    Перевод текста: Профессиональный (полное дублирование) Лицензия
    Субтитры: нет
    Главный режиссер: Жан-Марк Валле/Jean-Marc Vall?e

    Актеры
    Джейк Джилленхол, Наоми Уоттс, Крис Купер, Джуда Льюис, С.Дж. Уилсон, Полли Дрэйпер, Мэлаки Клири, Дебра Монк, Хезер Линд, Уасс М. Стивенс
    Описание: Когда банкир Дэвис узнал, что его жена мертва, он захотел купить шоколадный батончик в торговом автомате, но тот оказался сломан. Переживая горе, Дэвис начинает крушить дом, мебель, машину, строчить жалобы в обслуживающую торговые автоматы фирму. А в письмах он… рассказывает историю своей любви. Скоро ему отвечает Карен, менеджер компании, но сможет ли она спасти Дэвиса из эмоциональной пропасти?..
    Качество фильма видео: BDRip 720p
    Тип видео видео: MKV
    Информация о видео: 1280х544, 23.976 fps, AVC ~5523 kbps avg
    Информация о звуке: 48 kHz, AC3 Dolby Digital, 3/2 (L, C, R, l, r) + LFE ch, ~640 kbps
    Релиз подготовил:
    АНОНСЫ МОИХ РАЗДАЧ!



    МедиаИнфо

    Demolition.2015.720p_BDRip__scarabey.org.mkv
    Формат : Matroska
    Версия формата : Version 4/Version 2
    Размер файла : 4, 25 Гбайт
    Продолжительность : 1 ч. 40 м.
    Общий поток : 6027 Кбит/сек
    Дата кодирования : UTC 2016-08-17 11: 25: 01
    Программа кодирования : mkvmerge v6.1.0 (;Old Devil;) built on Mar 4 2013 09: 10: 42
    Библиотека кодирования : libebml v1.3.0 + libmatroska v1.4.0
    Видео
    Идентификатор : 1
    Формат : AVC
    Формат/Информация : Advanced Video Codec
    Профиль формата : High@L4.1
    Параметр CABAC формата : Да
    Параметр ReFrames формата : 12 кадров
    Идентификатор кодека : V_MPEG4/ISO/AVC
    Продолжительность : 1 ч. 40 м.
    Битрейт : 5523 Кбит/сек
    Ширина : 1280 пикселей
    Высота : 544 пикселя
    Соотношение сторон : 2, 35: 1
    Режим частоты кадров : Постоянный
    Частота кадров : 23, 976 (24000/1001) кадра/сек
    Цветовое пространство : YUV
    Субдискретизация насыщенности : 4: 2: 0
    Битовая глубина : 8 бит
    Тип развёртки : Прогрессивная
    Бит/(Пиксели*Кадры) : 0.331
    Размер потока : 3, 89 Гбайт (92%)
    Библиотека кодирования : x264 core 148 r2705kMod 3f5ed56
    Настройки программы : cabac=1/ref=12/deblock=1: -3: -3/analyse=0x3: 0x133/me=umh/subme=10/psy=1/fade_compensate=0.00/psy_rd=1.00: 0.00/mixed_ref=1/me_range=24/chroma_me=1/trellis=2/8x8dct=1/cqm=0/deadzone=21, 11/fast_pskip=0/chroma_qp_offset=-2/threads=12/lookahead_threads=2/sliced_threads=0/nr=0/decimate=0/interlaced=0/bluray_compat=0/constrained_intra=0/fgo=0/bframes=9/b_pyramid=2/b_adapt=2/b_bias=0/direct=3/weightb=1/open_gop=0/weightp=2/keyint=250/keyint_min=23/scenecut=40/intra_refresh=0/rc_lookahead=60/rc=crf/mbtree=0/crf=16.3000/qcomp=0.65/qpmin=0/qpmax=69/qpstep=4/vbv_maxrate=62500/vbv_bufsize=78125/crf_max=0.0/nal_hrd=none/filler=0/ip_ratio=1.30/pb_ratio=1.20/aq=3: 0.80
    Язык : English
    Default : Да
    Forced : Нет
    Цветовой диапазон : Limited
    Коэффициенты матрицы : BT.709
    Аудио
    Идентификатор : 2
    Формат : AC-3
    Формат/Информация : Audio Coding 3
    Расширение режима : CM (complete main)
    Параметр Endianness формата : Big
    Идентификатор кодека : A_AC3
    Продолжительность : 1 ч. 40 м.
    Вид битрейта : Постоянный
    Битрейт : 640 Кбит/сек
    Каналы : 6 каналов
    Расположение каналов : Front: L C R, Side: L R, LFE
    Частота : 48, 0 КГц
    Частота кадров : 31, 250 кадров/сек (1536 spf)
    Метод сжатия : С потерями
    Размер потока : 277 Мбайт (6%)
    Заголовок : Дубляж - Лицензия
    Язык : Russian
    Default : Да
    Forced : Нет
    Меню
    00: 00: 00.000 : en: 00: 00: 00.000
    00: 03: 09.815 : en: 00: 03: 09.815
    00: 07: 28.281 : en: 00: 07: 28.281
    00: 11: 11.671 : en: 00: 11: 11.671
    00: 15: 55.997 : en: 00: 15: 55.997
    00: 19: 23.037 : en: 00: 19: 23.037
    00: 23: 14.768 : en: 00: 23: 14.768
    00: 28: 21.325 : en: 00: 28: 21.325
    00: 32: 39.040 : en: 00: 32: 39.040
    00: 37: 16.693 : en: 00: 37: 16.693
    00: 42: 31.382 : en: 00: 42: 31.382
    00: 47: 09.952 : en: 00: 47: 09.952
    00: 51: 39.805 : en: 00: 51: 39.805
    00: 56: 23.005 : en: 00: 56: 23.005
    01: 00: 27.290 : en: 01: 00: 27.290
    01: 04: 41.878 : en: 01: 04: 41.878
    01: 09: 10.188 : en: 01: 09: 10.188
    01: 14: 08.444 : en: 01: 14: 08.444
    01: 18: 14.523 : en: 01: 18: 14.523
    01: 22: 22.354 : en: 01: 22: 22.354
    01: 26: 28.475 : en: 01: 26: 28.475
    01: 29: 15.475 : en: 01: 29: 15.475
    01: 33: 43.618 : en: 01: 33: 43.618
    01: 36: 41.838 : en: 01: 36: 41.838


    Онлайн видео Разрушение


    Размер скачиваемого торрента: 4.43 GB (4751921014 Bytes)

    Разрушение/Demolition (2015) BDRip 720p от Scarabey | Лицензия
    загрузка...
    Рейтинг →
     (голосов: 1, оценка 5/5, голосовать можно 1 раз )

    Другие торренты по теме:

  • Разрушение / Demolition (2015) HDRip от MegaPeer | L
  • Разрушение / Demolition (2015) HDRip от MegaPeer | L
  • Разрушение / Demolition (2015) WEB-DLRip | КПК | L
  • Разрушение / Demolition (2015) BDRemux 1080p от ExKinoRay | L
  • Разрушение / Demolition (2015) BDRip 720p от ExKinoRay | iTunes
  • Разрушение / Demolition (2015) HDRip от MegaPeer | iTunes
  • Разрушение / Demolition (2015) HDRip от MegaPeer | iTunes
  • Разрушение / Demolition (2015) HDRip от Scarabey | iTunes


    • Комментарии (0):

      Информация

      Информация

        Посетители, находящиеся в группе Гости, не могут оставлять комментарии в данной новости.

        ↓ Меню



        ↓ Опрос

        А Вы добавили сайт в закладки?
        Да
        Не


        Top 10 за месяц (Фильмы)