.
Авторизация | Регистрация
Хочешь лучшие торренты? Добавь свой email!
Добавить
» » Аддеролловые дневники / The Adderall Diaries (2015) BDRip 720p от ExKinoRay | iTunes скачать торрент бесплатно




    Аддеролловые дневники / The Adderall Diaries (2015) BDRip 720p от ExKinoRay | iTunes скачать торрент бесплатно

    Опубликовал: Админ | Дата: 18-09-2016, 05:01 | Просмотров: 71



    Детально о кино
    Русское название: Аддеролловые дневники
    Русское название в мировом прокате: The Adderall Diaries
    Создали в: 2015
    Категория жанра: Боевик, триллер, драма
    Главный режиссер: Памела Романовски

    Актеры
    Эмбер Хёрд, Джеймс Франко, Кристиан Слэйтер, Уилмер Вальдеррама, Эд Харрис, Синтия Никсон, Джим Пэррак, Тимоти Чаламет, Тоня Гланц, Дэн Флаэрти
    О фильме:
    Странное судебное разбирательство по делу об убийстве самое малое, что случилось с загнанным в угол прошлым успехом, застоем, злоупотреблением алкоголем, проблемами во взаимоотношениях и комплексом отца писателем Стивеном Эллиотом. Не далее как в 2007 году на судебном разбирательстве по делу программиста Ханса Райзера, обвиняемого в убийстве своей жены, товарищ ответчика Шон Стёрджон косвенно, избегая уточнений, сознался в нескольких убийствах (но все же исключая убийство жены Райзера). Эллиот, взятый на основании отснятого фильма и несущественной связи со Стёрджоном (они состояли в БДСМ-сообществе), создаёт эксцентричную запись судебной процедуры.

    Снималось в: США
    Киностудия: RabbitBandini Productions
    Время просмотра: 01: 26: 47
    Перевод текста: Дублированный |iTunes |
    Файл
    Кодек для видео: MPEG-4
    Качество фильма: BDRip 720p
    Информация о видео: 1280x536, 4150 Kbit/s, 23.976 fps
    Информация о звуке:
    Информация о звуке #01: 48 kHz, AC3, 5.1, 384 Kbps | Дублированный, iTunes |
    Информация о звуке #02: 48 kHz, AC3, 5.1, 384 kbps | Оригинал |
    Субтитры: Русские, английские

    MI
    Общее
    Уникальный идентификатор : 212082093038487848082191564533355200922 (0x9F8D867E540095A38116E98FA13B419A)
    Полное имя : G: VideoThe.Adderall.Diaries.2015.D.BDRip.720p.ExKinoRay.mkv
    Формат : Matroska
    Версия формата : Version 4/Version 2
    Размер файла : 2, 99 Гбайт
    Продолжительность : 1 ч. 27 м.
    Общий поток : 4913 Кбит/сек
    Название фильма : ***селезень***
    Дата кодирования : UTC 2016-09-16 03: 38: 49
    Программа кодирования : mkvmerge v8.3.0 (;Over the Horizon;) 64bit
    Библиотека кодирования : libebml v1.3.1 + libmatroska v1.4.2
    Видео
    Идентификатор : 1
    Формат : AVC
    Формат/Информация : Advanced Video Codec
    Профиль формата : High@L4.1
    Параметр CABAC формата : Да
    Параметр ReFrames формата : 12 кадров
    Идентификатор кодека : V_MPEG4/ISO/AVC
    Продолжительность : 1 ч. 27 м.
    Битрейт : 4143 Кбит/сек
    Ширина : 1280 пикселей
    Высота : 536 пикселей
    Соотношение сторон : 2, 40: 1
    Режим частоты кадров : Постоянный
    Частота кадров : 23, 976 (24000/1001) кадра/сек
    Цветовое пространство : YUV
    Субдискретизация насыщенности : 4: 2: 0
    Битовая глубина : 8 бит
    Тип развёртки : Прогрессивная
    Бит/(Пиксели*Кадры) : 0.252
    Размер потока : 2, 52 Гбайт (84%)
    Заголовок : ***селезень***
    Библиотека кодирования : x264 core 148 r2692+2+42 c1a827b Yuuki 8-bit@4: 2: 0 X86_64GCC 5.3.0
    Настройки программы : cabac=1/ref=12/deblock=1: -3: -3/analyse=0x3: 0x113/me=umh/subme=11/psy=1/fade_compensate=0.00/psy_rd=1.00: 0.05/mixed_ref=1/me_range=32/chroma_me=1/trellis=2/8x8dct=1/cqm=0/deadzone=21, 11/fast_pskip=0/chroma_qp_offset=-2/threads=17/lookahead_threads=2/sliced_threads=0/nr=0/decimate=1/interlaced=0/bluray_compat=0/constrained_intra=0/fgo=0/bframes=8/b_pyramid=2/b_adapt=2/b_bias=0/direct=3/weightb=1/open_gop=0/weightp=2/keyint=250/keyint_min=23/scenecut=40/intra_refresh=0/rc=crf/mbtree=0/crf=18.5500/qcomp=0.60/qpmin=0: 0: 0/qpmax=69: 69: 69/qpstep=4/ip_ratio=1.40/pb_ratio=1.30/aq=3: 0.90
    Язык : English
    Default : Да
    Forced : Нет
    Аудио #1
    Идентификатор : 2
    Формат : AC-3
    Формат/Информация : Audio Coding 3
    Расширение режима : CM (complete main)
    Параметр Endianness формата : Big
    Идентификатор кодека : A_AC3
    Продолжительность : 1 ч. 26 м.
    Вид битрейта : Постоянный
    Битрейт : 384 Кбит/сек
    Каналы : 6 каналов
    Расположение каналов : Front: L C R, Side: L R, LFE
    Частота : 48, 0 КГц
    Частота кадров : 31, 250 кадров/сек (1536 spf)
    Метод сжатия : С потерями
    Размер потока : 239 Мбайт (8%)
    Заголовок : iTunes
    Язык : Russian
    Default : Да
    Forced : Нет
    Аудио #2
    Идентификатор : 3
    Формат : AC-3
    Формат/Информация : Audio Coding 3
    Расширение режима : CM (complete main)
    Параметр Endianness формата : Big
    Идентификатор кодека : A_AC3
    Продолжительность : 1 ч. 27 м.
    Вид битрейта : Постоянный
    Битрейт : 384 Кбит/сек
    Каналы : 6 каналов
    Расположение каналов : Front: L C R, Side: L R, LFE
    Частота : 48, 0 КГц
    Частота кадров : 31, 250 кадров/сек (1536 spf)
    Метод сжатия : С потерями
    Размер потока : 239 Мбайт (8%)
    Заголовок : Original
    Язык : English
    Default : Нет
    Forced : Нет
    Текст #1
    Идентификатор : 4
    Формат : UTF-8
    Идентификатор кодека : S_TEXT/UTF8
    Идентификатор кодека/Информация : UTF-8 Plain Text
    Продолжительность : 1 ч. 19 м.
    Битрейт : 119 бит/сек
    Count of elements : 1201
    Размер потока : 69, 7 Кбайт (0%)
    Заголовок : Full
    Язык : Russian
    Default : Нет
    Forced : Нет
    Текст #2
    Идентификатор : 5
    Формат : UTF-8
    Идентификатор кодека : S_TEXT/UTF8
    Идентификатор кодека/Информация : UTF-8 Plain Text
    Продолжительность : 1 ч. 19 м.
    Битрейт : 63 бит/сек
    Count of elements : 1046
    Размер потока : 36, 6 Кбайт (0%)
    Заголовок : Full
    Язык : English
    Default : Нет
    Forced : Нет
    Текст #3
    Идентификатор : 6
    Формат : UTF-8
    Идентификатор кодека : S_TEXT/UTF8
    Идентификатор кодека/Информация : UTF-8 Plain Text
    Продолжительность : 1 ч. 25 м.
    Битрейт : 63 бит/сек
    Count of elements : 1184
    Размер потока : 40, 1 Кбайт (0%)
    Заголовок : SDH
    Язык : English
    Default : Нет
    Forced : Нет
    Меню
    00: 00: 00.000 : en: Chapter 1
    00: 03: 38.093 : en: Chapter 2
    00: 10: 39.848 : en: Chapter 3
    00: 16: 22.607 : en: Chapter 4
    00: 20: 18.676 : en: Chapter 5
    00: 28: 44.514 : en: Chapter 6
    00: 33: 07.068 : en: Chapter 7
    00: 38: 40.443 : en: Chapter 8
    00: 43: 29.273 : en: Chapter 9
    00: 51: 16.990 : en: Chapter 10
    00: 54: 33.979 : en: Chapter 11
    00: 59: 51.588 : en: Chapter 12
    01: 06: 14.595 : en: Chapter 13
    01: 11: 39.086 : en: Chapter 14
    01: 16: 01.724 : en: Chapter 15
    01: 19: 02.780 : en: Chapter 16
    Скриншоты

    Релиз подготовил: Автор релиза:

    Онлайн видео Аддеролловые дневники


    Размер скачиваемого торрента: 2.99 GB (3206160399 Bytes)

    Аддеролловые дневники/The Adderall Diaries (2015) BDRip 720p от ExKinoRay | iTunes
    загрузка...
    Рейтинг →
     (голосов: 1, оценка 3/5, голосовать можно 1 раз )

    Другие торренты по теме:

  • Аддеролловые дневники / The Adderall Diaries (2015) BDRip 720p | Line
  • Аддеролловые дневники / The Adderall Diaries (2015) BDRip 1080p | Line
  • Аддеролловые дневники / The Adderall Diaries (2015) HDRip от Portablius | Line
  • Аддеролловые дневники / The Adderall Diaries (2015) HDRip | iTunes
  • Аддеролловые дневники / The Adderall Diaries (2015) BDRip 720p | iTunes
  • Аддеролловые дневники / The Adderall Diaries (2015) BDRip 1080p от ExKinoRay | iTunes
  • Аддеролловые дневники / The Adderall Diaries (2015) BDRemux 1080p от ExKinoRay | iTunes
  • Аддеролловые дневники / The Adderall Diaries (2015) HDRip от MegaPeer | iTunes


    • Комментарии (0):

      Информация

      Информация

        Посетители, находящиеся в группе Гости, не могут оставлять комментарии в данной новости.

        ↓ Меню



        ↓ Опрос

        А Вы добавили сайт в закладки?
        Да
        Не


        Top 10 за месяц (Фильмы)