.
Авторизация | Регистрация
Хочешь лучшие торренты? Добавь свой email!
Добавить
» » Сладкое прощание Веры (2014) DVB от AND03AND скачать торрент бесплатно




    Сладкое прощание Веры (2014) DVB от AND03AND скачать торрент бесплатно

    Опубликовал: Админ | Дата: 17-09-2016, 05:00 | Просмотров: 58



    Детально о кино
    Русское название: Сладкое прощание Веры
    Создали в: 2014
    Категория жанра: драма
    Главный режиссер: Александра Бутор

    Актеры
    Павел Южаков-Харланчук, Юозас Будрайтис, Неле Савиченко-Климене, Сергей Журавель, Анна Полупанова, Татьяна Бовкалова, Алёна Сидорова, Виктор Манаев, Елена Побегаева

    Сюжет фильма

    Бывшая стюардесса Вера всю жизнь ждала свою единственную любовь - капитана авиалайнера, который так и не решился ради нее бросить свою семью. На склоне лет она остается без работы, родных, друзей, с мучительными воспоминаниями. Опасаясь внезапной смерти, зная, что о ней никто не сможет позаботиться, Вера решает заранее организовать собственные похороны и приглашает к себе агента из бюро ритуальных услуг. Им оказывается романтичный парень. Между героями вспыхивает любовь, в которой они не смеют признаться даже себе. Время, проведенное рядом с этим человеком, становится для Веры самым сладким в жизни...
    Доп. информация:
    Сценаристы: Александра Бутор, Юлия Гирель
    Оператор: Андрей Воскресенский
    Художник: Михаил Кузьмин
    Премьера: 7 мая 2015, 15 мая 2015
    Запись потока *.tsс наземного цифрового телеканала СТВ - столичное телевидение (Минск).

    Благодарность: за помощь с недостающим материалом Bartimeyse .Большое спасибо!
    Снималось в: Республика Беларусь
    Киностудия: Беларусьфильм
    Время просмотра: 01: 39: 03
    Перевод текста: Не требуется
    Файл
    Кодек для видео: AVC (H264)
    Качество фильма: DVB
    Информация о видео: MPEG4 Video (H264) 720(785)x576 (49: 36) 25fps, 2 360 kb/s
    Информация о звуке: MPEG Audio 48000Hz stereo 256kbps
    Семпл
    MediaInfo

    General
    ID : 1 (0x1)
    Complete name : D: Новая земля 2Художественные фильмыСладкое прощание Веры (2014)Сладкое прощание Веры (2014).ts
    Format : MPEG-TS
    File size : 1.91 GiB
    Duration : 1 h 39 min
    Overall bit rate mode : Variable
    Overall bit rate : 2 755 kb/s
    Video
    ID : 513 (0x201)
    Menu ID : 1 (0x1)
    Format : AVC
    Format/Info : Advanced Video Codec
    Format profile : Main@L3
    Format settings, CABAC : Yes
    Format settings, ReFrames : 4 frames
    Codec ID : 27
    Duration : 1 h 39 min
    Bit rate : 2 360 kb/s
    Width : 720 pixels
    Height : 576 pixels
    Display aspect ratio : 4: 3
    Frame rate : 25.000 FPS
    Standard : PAL
    Color space : YUV
    Chroma subsampling : 4: 2: 0
    Bit depth : 8 bits
    Scan type : MBAFF
    Scan type, store method : Separated fields
    Scan order : Top Field First
    Bits/(Pixel*Frame) : 0.228
    Stream size : 1.63 GiB (86%)
    Color range : Limited
    Color primaries : BT.601 PAL
    Transfer characteristics : BT.470 System B, BT.470 System G
    Matrix coefficients : BT.601
    Audio
    ID : 514 (0x202)
    Menu ID : 1 (0x1)
    Format : MPEG Audio
    Format version : Version 1
    Format profile : Layer 2
    Codec ID : 3
    Duration : 1 h 39 min
    Bit rate mode : Constant
    Bit rate : 256 kb/s
    Channel(s) : 2 channels
    Sampling rate : 48.0 kHz
    Compression mode : Lossy
    Stream size : 181 MiB (9%)
    Language : English

    Скриншот c названием фильма



    Скриншоты

    Залил: AND03AND

    Онлайн видео Водоворот


    Размер скачиваемого торрента: 1.91 GB (2046436776 Bytes)

    Сладкое прощание Веры (2014) DVB от AND03AND
    загрузка...
    Рейтинг →
     (голосов: 1, оценка 4/5, голосовать можно 1 раз )

    Другие торренты по теме:

  • Сладкое правосудие / Sweet Justice (1992) DVDRip | A


    • Комментарии (0):

      Информация

      Информация

        Посетители, находящиеся в группе Гости, не могут оставлять комментарии в данной новости.

        ↓ Меню



        ↓ Опрос

        А Вы добавили сайт в закладки?
        Да
        Не


        Top 10 за месяц (Фильмы)