.
Авторизация | Регистрация
Хочешь лучшие торренты? Добавь свой email!
Добавить
» » С 8 марта, мужчины! (2014) DVDRip | Лицензия скачать торрент бесплатно




    С 8 марта, мужчины! (2014) DVDRip | Лицензия скачать торрент бесплатно

    Опубликовал: Админ | Дата: 16-09-2016, 05:01 | Просмотров: 61



    Детально о кино
    Русское название: С 8 марта, мужчины!
    Создали в: 2014
    Категория жанра: Мелодрама, комедия
    Главный режиссер: Артем Аксененко

    Актеры
    Мария Берсенева, Максим Виторган, Светлана Иванова, Михаил Башкатов, Вера Алентова, Константин Лавиш, Ксения Бородина, Владислав Лисовец, Стивен Нельсон, Алексей Климушкин

    Сюжет фильма

    Анна Беркутова — блондинка в броне из мини-юбки и глубокого декольте. Ее оружие — красота, ум и абсолютная уверенность в том, что она знает мужчин. Она ведет важный проект в Сколково и собирается замуж за богатого иностранца. Но в день ее рождения, 8 марта, ее четкая, как финансовый отчет, судьба меняется: Аню бросает жених, ее проект крадут из Сколково, а сама она начинает слышать мысли мужчин. Эта способность сначала доводит ее до отчаяния, а затем открывает широкие возможности…

    Снималось в: Россия, Беларусь
    Киностудия: Беларусьфильм, Москит
    Время просмотра: 01: 38: 34
    Перевод текста: Не требуется Лицензия
    Файл
    Качество фильма: DVDRip
    Кодек для видео: XviD
    Информация о видео: 704x400 (16: 9), 25 fps, XviD ~1665 kbps avg, 0.236 bit/pixel
    Информация о звуке: 48 kHz, АС3, 6ch, ~448.00 kbps avg | русский
    Субтитры: Отсутствуют
    Семпл
    Инфо-файл
    Общее
    Полное имя : D: S.8.Marta.Muzchiny.2014.O.DVDRip.745Mb.avi
    Формат : AVI
    Формат/Информация : Audio Video Interleave
    Размер файла : 744 Мбайт
    Продолжительность : 1 ч. 38 м.
    Общий поток : 1055 Кбит/сек
    Программа кодирования : VirtualDubMod 1.5.10.3 (build 2550/release)
    Библиотека кодирования : VirtualDubMod build 2550/release
    Видео
    Идентификатор : 0
    Формат : MPEG-4 Visual
    Профиль формата : Advanced Simple@L5
    Параметр BVOP формата : 2
    Параметр QPel формата : Нет
    Параметр GMC формата : Без точки перехода
    Параметр матрицы формата : Default (MPEG)
    Режим смешивания : Сжатый битовый поток
    Идентификатор кодека : XVID
    Идентификатор кодека/Подсказка : XviD
    Продолжительность : 1 ч. 38 м.
    Битрейт : 918 Кбит/сек
    Ширина : 624 пикселя
    Высота : 352 пикселя
    Соотношение сторон : 16: 9
    Частота кадров : 25, 000 кадров/сек
    Цветовое пространство : YUV
    Субдискретизация насыщенности : 4: 2: 0
    Битовая глубина : 8 бит
    Тип развёртки : Прогрессивная
    Метод сжатия : С потерями
    Бит/(Пиксели*Кадры) : 0.167
    Размер потока : 647 Мбайт (87%)
    Библиотека кодирования : XviD 73
    Аудио
    Идентификатор : 1
    Формат : MPEG Audio
    Версия формата : Version 1
    Профиль формата : Layer 3
    Режим : Joint stereo
    Расширение режима : MS Stereo
    Идентификатор кодека : 55
    Идентификатор кодека/Подсказка : MP3
    Продолжительность : 1 ч. 38 м.
    Вид битрейта : Постоянный
    Битрейт : 128 Кбит/сек
    Каналы : 2 канала
    Частота : 48, 0 КГц
    Метод сжатия : С потерями
    Размер потока : 90, 2 Мбайт (12%)
    Выравнивание : Соединение по промежуткам
    Продолжительность промежутка : 40 мс. (1, 00 видеокадр)
    Время предзагрузки промежутка : 504 мс.
    Библиотека кодирования : LAME3.97
    Скриншоты

    Залил: admiralkz

    Онлайн видео С 8 марта, мужчины! (2014) DVDRip


    Размер скачиваемого торрента: 1.46 GB (1568916850 Bytes)

    С 8 марта, мужчины! (2014) DVDRip | Лицензия
    загрузка...
    Рейтинг →
     (голосов: 1, оценка 4/5, голосовать можно 1 раз )

    Другие торренты по теме:

  • С 8 марта, мужчины (2014)
  • С 8 марта, мужчины! (2014) DVDRip-AVC от ExKinoRay | Лицензия
  • Они и мы. Мужчины 8 Марта (2014) HDTVRip 720p от waPBX


    • Комментарии (0):

      Информация

      Информация

        Посетители, находящиеся в группе Гости, не могут оставлять комментарии в данной новости.

        ↓ Меню



        ↓ Опрос

        А Вы добавили сайт в закладки?
        Да
        Не


        Top 10 за месяц (Фильмы)