.
Авторизация | Регистрация
Хочешь лучшие торренты? Добавь свой email!
Добавить
» » Пятница (2016) DVD9 | лицензия скачать торрент бесплатно




    Пятница (2016) DVD9 | лицензия скачать торрент бесплатно

    Опубликовал: Админ | Дата: 12-09-2016, 05:01 | Просмотров: 49



    Детально о кино
    Русское название: Пятница
    Создали в: 2016
    Категория жанра: комедия
    Главный режиссер: Евгений Шелякин

    Актеры
    Данила Козловский, Сергей Бурунов, Настасья Самбурская, Катерина Шпица, Павел Деревянко, Кирилл Плетнёв, Евгения Брик, Антон Шагин, Ян Цапник, Евгений Стычкин

    Сюжет фильма

    Что если азартный миллионер на одну ночь станет официантом, офисный лузер будет звездой самой яркой вечеринки, а двум заклятым друзьям придется искать кенгуру ночью в подмосковном лесу? У каждого своя пятница! Как она закончится для каждого, знает только утро субботы ;)

    Снималось в: Россия
    Киностудия: RSS Production
    Время просмотра: 83 мин./01: 23
    Перевод текста: не требуется
    Файл
    Кодек для видео: MPEG2
    Качество фильма: DVD9 НД Плэй
    Информация о видео: PAL 16: 9 (720x576@1024x576) VBR 7145 Kbps, 25.000 fps
    Информация о звуке: Dolby AC3, 6 ch, 48.0 KHz, 448 Kbps
    Субтитры: отсутствуют
    MediaInfo
    Общее
    Полное имя : D: MoviesПЯТНИЦАVIDEO_TSVTS_09_1.VOB
    Формат : MPEG-PS
    Размер файла : 1000 Мбайт
    Продолжительность : 18 м. 2 с.
    Режим общего битрейта : Переменный
    Общий поток : 7747 Кбит/сек
    Видео
    Идентификатор : 224 (0xE0)
    Формат : MPEG Video
    Версия формата : Version 2
    Профиль формата : Main@Main
    Параметр BVOP формата : Да
    Параметр матрицы формата : По умолчанию
    Параметр GOP формата : Variable
    Продолжительность : 18 м. 2 с.
    Вид битрейта : Переменный
    Битрейт : 7145 Кбит/сек
    Максимальный битрейт : 8500 Кбит/сек
    Ширина : 720 пикселей
    Высота : 576 пикселей
    Соотношение сторон : 16: 9
    Частота кадров : 25, 000 кадров/сек
    Стандарт вещания : PAL
    Цветовое пространство : YUV
    Субдискретизация насыщенности : 4: 2: 0
    Битовая глубина : 8 бит
    Тип развёртки : Прогрессивная
    Метод сжатия : С потерями
    Бит/(Пиксели*Кадры) : 0.689
    Временной код первого кадра : 00: 00: 00: 00
    Оригинал временного кода : Group of pictures t_head
    Размер потока : 922 Мбайт (92%)
    Аудио
    Идентификатор : 189 (0xBD)-128 (0x80)
    Формат : AC-3
    Формат/Информация : Audio Coding 3
    Расширение режима : CM (complete main)
    Параметр Endianness формата : Big
    Режим смешивания : DVD-Video
    Продолжительность : 18 м. 2 с.
    Вид битрейта : Постоянный
    Битрейт : 448 Кбит/сек
    Каналы : 6 каналов
    Расположение каналов : Front: L C R, Side: L R, LFE
    Частота : 48, 0 КГц
    Частота кадров : 31, 250 кадров/сек (1536 spf)
    Метод сжатия : С потерями
    Размер потока : 57, 8 Мбайт (6%)
    Меню
    Скриншоты


    Залил: carisha

    Онлайн видео Пятница (2016) DVD9


    Размер скачиваемого торрента: 5.14 GB (5519779840 Bytes)

    Пятница (2016) DVD9 | лицензия
    загрузка...
    Рейтинг →
     (голосов: 1, оценка 4/5, голосовать можно 1 раз )

    Другие торренты по теме:

  • Пятница (2016) HDRip от MegaPeer | Лицензия
  • Пятница (2016) НDRip | Лицензия
  • Пятница (2016) BDRip-AVC от HELLYWOOD | Лицензия
  • Пятница (2016) BDRip-AVC от HELLYWOOD | Лицензия
  • Пятница (2016) HDRip | КПК | Лицензия
  • Пятница (2016) BDRip 720p | Лицензия
  • Пятница (2016) BDRip 1080p от ExKinoRay | Лицензия
  • Пятница (2016) BDRip-AVC от New-Team | Лицензия


    • Комментарии (0):

      Информация

      Информация

        Посетители, находящиеся в группе Гости, не могут оставлять комментарии в данной новости.

        ↓ Меню



        ↓ Опрос

        А Вы добавили сайт в закладки?
        Да
        Не


        Top 10 за месяц (Фильмы)