.
Авторизация | Регистрация
Хочешь лучшие торренты? Добавь свой email!
Добавить
» » Декамерон / Maraviglioso Boccaccio (2015) BDRip 1080p | iTunes скачать торрент бесплатно




    Декамерон / Maraviglioso Boccaccio (2015) BDRip 1080p | iTunes скачать торрент бесплатно

    Опубликовал: Админ | Дата: 12-09-2016, 05:00 | Просмотров: 11



    Детально о кино
    Русское название: Декамерон
    Русское название в мировом прокате: Maraviglioso Boccaccio
    Создали в: 2015
    Категория жанра: Драма, комедия, история
    Главный режиссер: Паоло Тавиани, Витторио Тавиани

    Актеры
    Лелло Арена, Паола Кортеллези, Каролина Крешентини, Флавио Паренти, Виттория Пуччини, Микеле Риондино, Ким Росси Стюарт, Риккардо Скамарчио, Касия Смутняк, Жазмин Тринка

    Сюжет фильма

    Флоренция, XIV век. Повсюду свирепствует Черная смерть - три юноши и семь девушек сбегают в деревню, чтобы оградить себя от чумы. Там, чтобы скоротать время, они начинают рассказывать друг другу разные истории, посвященные любви.

    Снималось в: Италия, Франция
    Киностудия: Stemal Entertainment, Cinemaundici, Barbary Films
    Время просмотра: 01: 55: 47
    Перевод текста: Дублированный iTunes
    Файл
    Кодек для видео: MPEG-4 AVC
    Качество фильма: BDRip (1080p)
    Информация о видео: 9981 Кбит/с, 1920x1036
    Информация о звуке: Русский (AC3, 6 ch, 384 Кбит/с), итальянский (DTS, 6 ch, 768 Кбит/с)
    Семпл
    Скрытый текст

    General
    Unique ID : 215906568540391497829205012735590498265 (0xA26E17B1A1874B21B8FA81E5B9C17FD9)
    Complete name : D: Maraviglioso.Boccaccio.2015.x264.BDRip.1080p.NovaLan.mkv
    Format : Matroska
    Format version : Version 4/Version 2
    File size : 9.39 GiB
    Duration : 2 h 0 min
    Overall bit rate : 11.1 Mb/s
    Movie name : Maraviglioso Boccaccio 2015 - NovaLan
    Encoded date : UTC 2016-08-11 19: 52: 01
    Writing application : mkvmerge v6.9.1 (;Blue Panther;) 64bit built on Apr 18 2014 18: 23: 38
    Writing library : libebml v1.3.0 + libmatroska v1.4.1
    Video
    ID : 1
    Format : AVC
    Format/Info : Advanced Video Codec
    Format profile : High@L4.1
    Format settings, CABAC : Yes
    Format settings, ReFrames : 4 frames
    Codec ID : V_MPEG4/ISO/AVC
    Duration : 2 h 0 min
    Bit rate : 9 981 kb/s
    Width : 1 920 pixels
    Height : 1 036 pixels
    Display aspect ratio : 1.85: 1
    Frame rate mode : Constant
    Frame rate : 23.976 (24000/1001) FPS
    Color space : YUV
    Chroma subsampling : 4: 2: 0
    Bit depth : 8 bits
    Scan type : Progressive
    Bits/(Pixel*Frame) : 0.209
    Stream size : 8.23 GiB (88%)
    Title : Sergei7721
    Writing library : x264 core 148 r2705 3f5ed56
    Encoding settings : cabac=1/ref=4/deblock=1: -1: -1/analyse=0x3: 0x113/me=umh/subme=11/psy=1/psy_rd=1.00: 0.20/mixed_ref=1/me_range=24/chroma_me=1/trellis=2/8x8dct=1/cqm=0/deadzone=21, 11/fast_pskip=0/chroma_qp_offset=-3/threads=12/lookahead_threads=1/sliced_threads=0/nr=0/decimate=0/interlaced=0/bluray_compat=0/constrained_intra=0/bframes=6/b_pyramid=2/b_adapt=2/b_bias=0/direct=3/weightb=1/open_gop=0/weightp=2/keyint=240/keyint_min=23/scenecut=40/intra_refresh=0/rc_lookahead=40/rc=2pass/mbtree=0/bitrate=9981/ratetol=1.0/qcomp=0.60/qpmin=0/qpmax=69/qpstep=4/cplxblur=20.0/qblur=0.5/vbv_maxrate=50000/vbv_bufsize=62500/nal_hrd=none/filler=0/ip_ratio=1.40/pb_ratio=1.30/aq=1: 1.00
    Default : Yes
    Forced : No
    Audio #1
    ID : 2
    Format : AC-3
    Format/Info : Audio Coding 3
    Mode extension : CM (complete main)
    Format settings, Endianness : Big
    Codec ID : A_AC3
    Duration : 2 h 0 min
    Bit rate mode : Constant
    Bit rate : 384 kb/s
    Channel(s) : 6 channels
    Channel positions : Front: L C R, Side: L R, LFE
    Sampling rate : 48.0 kHz
    Frame rate : 31.250 FPS (1536 spf)
    Compression mode : Lossy
    Stream size : 332 MiB (3%)
    Language : Russian
    Default : Yes
    Forced : No
    Audio #2
    ID : 3
    Format : DTS
    Format/Info : Digital Theater Systems
    Mode : 16
    Format settings, Endianness : Big
    Codec ID : A_DTS
    Duration : 2 h 0 min
    Bit rate mode : Constant
    Bit rate : 768 kb/s
    Channel(s) : 6 channels
    Channel positions : Front: L C R, Side: L R, LFE
    Sampling rate : 48.0 kHz
    Frame rate : 93.750 FPS (512 spf)
    Bit depth : 16 bits
    Compression mode : Lossy
    Stream size : 664 MiB (7%)
    Language : Italian
    Default : No
    Forced : No
    Menu
    00: 00: 00.000 : en: 00: 00: 00.000
    00: 01: 52.153 : en: 00: 01: 52.153
    00: 06: 38.648 : en: 00: 06: 38.648
    00: 12: 29.623 : en: 00: 12: 29.623
    00: 18: 21.475 : en: 00: 18: 21.475
    00: 39: 35.831 : en: 00: 39: 35.831
    00: 55: 05.927 : en: 00: 55: 05.927
    00: 58: 33.676 : en: 00: 58: 33.676
    01: 20: 05.926 : en: 01: 20: 05.926
    01: 31: 55.176 : en: 01: 31: 55.176
    01: 50: 59.819 : en: 01: 50: 59.819
    01: 57: 22.744 : en: 01: 57: 22.744
    02: 00: 50.034 : en: 02: 00: 50.034

    Скриншоты




    Онлайн видео Декамерон


    Размер скачиваемого торрента: 9.39 GB (10084290008 Bytes)

    Декамерон/Maraviglioso Boccaccio (2015) BDRip 1080p | iTunes
    загрузка...
    Рейтинг →
     (голосов: 1, оценка 5/5, голосовать можно 1 раз )

    Другие торренты по теме:

  • Декамерон / Maraviglioso Boccaccio (2015) WEBRip 1080p от Электричка | Чистый звук
  • Декамерон / Maraviglioso Boccaccio (2015) WEBRip от Электричка | Чистый звук
  • Декамерон / Maraviglioso Boccaccio / 2015 / ДБ (Line) / WEBRip
  • Декамерон / Maraviglioso Boccaccio / 2015 / ДБ (Line) / WEBRip
  • Декамерон / Maraviglioso Boccaccio (2015) HDRip от MegaPeer | iTunes


    • Комментарии (0):

      Информация

      Информация

        Посетители, находящиеся в группе Гости, не могут оставлять комментарии в данной новости.

        ↓ Меню



        ↓ Опрос

        А Вы добавили сайт в закладки?
        Да
        Не


        Top 10 за месяц (Фильмы)