.
Авторизация | Регистрация
Хочешь лучшие торренты? Добавь свой email!
Добавить
» » Сила, страсть и убийство / Power, Passion and Murders (1987) DVB от AND03AND P2 скачать торрент бесплатно




    Сила, страсть и убийство / Power, Passion and Murders (1987) DVB от AND03AND P2 скачать торрент бесплатно

    Опубликовал: Админ | Дата: 12-09-2016, 05:00 | Просмотров: 40



    Детально о кино
    Русское название: Сила, страсть и убийство
    Русское название в мировом прокате: Power, Passion and Murders
    Создали в: 1987
    Категория жанра: драма, биография
    Главный режиссер: Пол Богарт/Paul Bogart

    Актеры
    Мишель Пфайффер, Гектор Элизондо, Джордж Мёрдок, Холланд Тейлор, Брайан Монтгомери, Дэвид Экройд, Дж. Майкл Флинн, Брайан Кёрвин, Даррен МакГэвин, Ким Майерс, Стивен Бауер, Стэлла Стивенс, Кеннет МакМиллан, Лоис Чайльз, Донна Мёрфи, Кенни Вэнс, Лиза-Мари Собль, Шерилин Фенн, Энн Магнусон, Нива Паттерсон, Эрл Боен

    Сюжет фильма

    Телефильм был впервые показан на экране как две серии из трехсерийной передачи Сказки голливудских холмов, повествующей о 30-х годах, Золотом Веке Голливуда. Первая серия была снята в жанре драмы, а вторая — комедии. Впоследствии эти две серии были смонтированы вместе и выпущены на видео под названием Власть, страсть и убийство с двумя параллельными сюжетными линиями.
    Власть, страсть и убийство/Tales from the Hollywood Hills: Natica Jackson
    Голливудская богиня Натика под чутким руководством своих агентов Морриса и Эрнестины кочует из одной картины в другую. Она устала от бесконечных съёмок, ревнует своих школьных подруг, которые давно вышли замуж, и хочет заняться своей личной жизнью. Случайно врезавшись в автомобиль химика, работающего на нефтяную компанию, она находит то, что ищет. Но есть одна проблема: Хэл Грехем женат и у него двое детей, и их роман обречен завершиться трагедией.
    Столик у Сайро/Tales from the Hollywood Hills: A Table at Ciro;s
    На обеде у владельца студии Натана собираются актёры, способные на всё, чтобы попасть на экран: вышедшие в тираж знаменитости Мими и Лью, наивная инженю Дженни и самодовольный латиноамериканский красавец Тони Монтойа.
    Доп. информация:
    Продюсер: Дэвид Локстон, Кимберли Майерс
    Автор сценария: Джон О;Хара (рассказ), Энди Уолк, Бадд Шульберг (рассказ), Бадд Шульберг, Стэнли Сильверман
    Оператор: Ньютон Томас Сигел
    Композитор: Дик Хаймен
    Кинокомпания: Zenith Entertainment Ltd.
    Награды
    В 1989 году сценарист Энди Уолк получил приз Американской гильдии киносценаристов как автор лучшего сценария эпизода антологии или единичной телепередачи за эпизод Натика Джексон.

    Запись потока *.tsс наземного цифрового телеканала Беларусь 3.
    Во время показа появляется баннер оповещения о трансляции фильма. А так же анонс во время трансляции финальных интертитров. Видно на скрине.
    Благодарность: за помощь с недостающим материалом Bartimeyse и PavelDAS .Обоим большое спасибо!
    Снималось в: США
    Киностудия: Zenith Entertainment Ltd.
    Время просмотра: 01: 26: 16
    Перевод текста: Профессиональный (двухголосый закадровый)
    Файл
    Кодек для видео: AVC (H264)
    Качество фильма: DVB
    Информация о видео: MPEG4 Video (H264) 720(785)x576 (4: 3) 25fps, 2 266 Kbps
    Информация о звуке: MPEG Audio 48000Hz stereo 256kbps
    MediaInfo

    General
    ID : 1 (0x1)
    Complete name : D: Новая земля 2Художественные фильмыВласть, страсть и убийство (1987)Власть, страсть и убийство (1987).ts
    Format : MPEG-TS
    File size : 1.60 GiB
    Duration : 1h 26mn
    Overall bit rate mode : Variable
    Overall bit rate : 2 656 Kbps
    Video
    ID : 801 (0x321)
    Menu ID : 1 (0x1)
    Format : AVC
    Format/Info : Advanced Video Codec
    Format profile : Main@L3.0
    Format settings, CABAC : Yes
    Format settings, ReFrames : 4 frames
    Format settings, GOP : M=4, N=24
    Codec ID : 27
    Duration : 1h 26mn
    Bit rate : 2 266 Kbps
    Width : 720 pixels
    Height : 576 pixels
    Display aspect ratio : 4: 3
    Frame rate : 25.000 fps
    Standard : PAL
    Color space : YUV
    Chroma subsampling : 4: 2: 0
    Bit depth : 8 bits
    Scan type : MBAFF
    Scan order : Top Field First
    Bits/(Pixel*Frame) : 0.219
    Stream size : 1.37 GiB (85%)
    Color primaries : BT.601 PAL
    Transfer characteristics : BT.470 System B, BT.470 System G
    Matrix coefficients : BT.601
    Color range : Limited
    Audio
    ID : 802 (0x322)
    Menu ID : 1 (0x1)
    Format : MPEG Audio
    Format version : Version 1
    Format profile : Layer 2
    Codec ID : 3
    Duration : 1h 26mn
    Bit rate mode : Constant
    Bit rate : 256 Kbps
    Channel(s) : 2 channels
    Sampling rate : 48.0 KHz
    Compression mode : Lossy
    Stream size : 158 MiB (10%)
    Language : English

    Скриншот c названием фильма



    Скриншоты

    Залил: AND03AND

    Онлайн видео Сила, страсть и убийство


    Размер скачиваемого торрента: 1.60 GB (1718059620 Bytes)

    Сила, страсть и убийство/Power, Passion and Murders (1987) DVB от AND03AND P2
    загрузка...
    Рейтинг →
     (голосов: 1, оценка 5/5, голосовать можно 1 раз )

    Другие торренты по теме:

  • Иван Сила / Iван Сила (2013) SATRip | L1
  • Экахарт Толле - Сила момента Сейчас (2009) DOC
  • Сила сердца (2013) SATRip
  • Орисон Суэт Марден - Величайший секрет. Невероятная сила мысли (2007) PDF
  • Сила книги Зоар (2010) WEB-DL Rip 720p
  • Семён Винокур - Сила книги Зоар (2010) MP3
  • Брайан Петерсон - Как снимать шедевры с помощью фотовспышки. Сила освещения (2012) DjVu
  • Лори Эксель, Джон Бетдорф, Дэвид Броммер и др. - Искусство фотографии: сила композиции (2011) PDF


    • Комментарии (0):

      Информация

      Информация

        Посетители, находящиеся в группе Гости, не могут оставлять комментарии в данной новости.

        ↓ Меню



        ↓ Опрос

        А Вы добавили сайт в закладки?
        Да
        Не


        Top 10 за месяц (Фильмы)