.
Авторизация | Регистрация
Хочешь лучшие торренты? Добавь свой email!
Добавить
» » Хранилище 13 / Warehouse 13 (2009-2014) WEB-DLRip от Generalfilm | КПК | LostFilm скачать торрент бесплатно




    Хранилище 13 / Warehouse 13 (2009-2014) WEB-DLRip от Generalfilm | КПК | LostFilm скачать торрент бесплатно

    Опубликовал: Админ | Дата: 11-09-2016, 05:01 | Просмотров: 43



    Детально о кино
    Русское название: Хранилище 13
    Русское название в мировом прокате: Warehouse 13
    Создали в: 2009
    Категория жанра: Фантастика, драма, детектив
    Главный режиссер: Тауния Маккирнан, Константин Макрис, Стивен Серджик

    Актеры
    Эдди МакКлинток, Джоэнн Келли, Сол Рубинек, Дженелл Уильямс, Эллисон Скальотти, Си Си Эйч Паундер, Саймон Рейнольдс, Аарон Эшмор, Джейми Мюррэй, Саша Ройз

    Сюжет фильма

    После спасения жизни президента двух агентов Секретной службы переводят на секретный объект в штате Южная Дакота. Там содержатся сверхъестественные вещи, которые правительство США собирало в течение столетий. Их новое назначение — вернуть часть пропавших вещей и расследовать сообщения о новых.

    Снималось в: США
    Киностудия: SyFy, Universal Cable Productions
    Время просмотра: 65 x ~ 00: 43: 00
    Перевод текста: Профессиональный (многоголосый, закадровый) LostFilm
    Файл
    Тип видео: MP4
    Качество фильма: HDRip, WEB-DLRip | КПК
    Информация о видео: MPEG-4 AVC (x264), 640x360, ~500 kbps, 23.976 fps
    Информация о звуке: AAC LC, 48.0 KHz, 2 ch, 128 Kbps
    Субтитры: Нет
    Семпл
    Скриншоты

    MI
    General
    Complete name : E: KinoHranilishhe.13.AVC.KPK.LF.GeneralfilmHranilishhe.13.S03.2011.AVC.WEB-DLRip.KPK.LF.GeneralfilmHranilishhe.13.s03e07.2011.AVC.WEB-DLRip.KPK.Generalfilm.mp4
    Format : MPEG-4
    Format profile : Base Media
    Codec ID : isom
    File size : 194 MiB
    Duration : 42mn 57s
    Overall bit rate mode : Variable
    Overall bit rate : 630 Kbps
    Encoded date : UTC 2014-06-20 14: 19: 13
    Tagged date : UTC 2014-06-20 14: 19: 13
    Video
    ID : 1
    Format : AVC
    Format/Info : Advanced Video Codec
    Format profile : Baseline@L4.1
    Format settings, CABAC : No
    Format settings, ReFrames : 6 frames
    Codec ID : avc1
    Codec ID/Info : Advanced Video Coding
    Duration : 42mn 57s
    Bit rate : 500 Kbps
    Maximum bit rate : 2 503 Kbps
    Width : 640 pixels
    Height : 360 pixels
    Display aspect ratio : 16: 9
    Frame rate mode : Constant
    Frame rate : 23.976 fps
    Color space : YUV
    Chroma subsampling : 4: 2: 0
    Bit depth : 8 bits
    Scan type : Progressive
    Bits/(Pixel*Frame) : 0.091
    Stream size : 154 MiB (79%)
    Writing library : x264 core 119 r2106 07efeb4
    Encoding settings : cabac=0/ref=6/deblock=1: -1: -1/analyse=0x1: 0x111/me=umh/subme=7/psy=1/psy_rd=1.00: 0.00/mixed_ref=0/me_range=16/chroma_me=1/trellis=1/8x8dct=0/cqm=0/deadzone=21, 11/fast_pskip=0/chroma_qp_offset=-2/threads=3/sliced_threads=0/nr=0/decimate=1/interlaced=0/bluray_compat=0/constrained_intra=0/bframes=0/weightp=0/keyint=250/keyint_min=23/scenecut=40/intra_refresh=0/rc_lookahead=60/rc=2pass/mbtree=1/bitrate=500/ratetol=1.0/qcomp=0.60/qpmin=0/qpmax=69/qpstep=4/cplxblur=20.0/qblur=0.5/ip_ratio=1.40/aq=1: 1.00
    Encoded date : UTC 2014-06-20 14: 19: 13
    Tagged date : UTC 2014-06-20 14: 20: 31
    Audio
    ID : 2
    Format : AAC
    Format/Info : Advanced Audio Codec
    Format profile : LC
    Codec ID : 40
    Duration : 42mn 57s
    Bit rate mode : Variable
    Bit rate : 128 Kbps
    Maximum bit rate : 155 Kbps
    Channel count : 2 channels
    Channel positions : Front: L R
    Sampling rate : 48.0 KHz
    Compression mode : Lossy
    Stream size : 39.3 MiB (20%)
    Encoded date : UTC 2014-06-20 14: 20: 27
    Tagged date : UTC 2014-06-20 14: 20: 31

    Релиз подготовил:
    Залил: toys_watch

    Онлайн видео Хранилище 13


    Размер скачиваемого торрента: 12.42 GB (13338318094 Bytes)

    Хранилище 13/Warehouse 13 (2009-2014) WEB-DLRip от Generalfilm | КПК | LostFilm
    загрузка...
    Рейтинг →
     (голосов: 1, оценка 4/5, голосовать можно 1 раз )

    Другие торренты по теме:

  • Хранилище 13 / Warehouse 13 (2012-2013) WEB-DLRip 720p, HDTVRip 720p | LostFilm
  • Хранилище 13 / Warehouse 13 (2010) WEB-DLRip | КПК | LostFilm
  • Хранилище 13 / Warehouse 13 (2012) WEB-DLRip | КПК | LostFilm
  • Хранилище 13 / Warehouse 13 (2009-2013) WEB-DLRip | LostFilm скачать через торрент бесплатно
  • Хранилище 13 / Warehouse 13 (2014) WEB-DL 720p от HDClub скачать через торрент бесплатно
  • Хранилище 13 / Warehouse 13 (2014) WEB-DL 1080p от HDClub скачать через торрент бесплатно
  • Хранилище 13 / Warehouse 13 (2014) WEB-DL 1080р | LostFilm скачать через торрент бесплатно
  • Хранилище 13 / Warehouse 13 (2014) WEB-DLRip | LostFilm скачать через торрент бесплатно


    • Комментарии (0):

      Информация

      Информация

        Посетители, находящиеся в группе Гости, не могут оставлять комментарии в данной новости.

        ↓ Меню



        ↓ Опрос

        А Вы добавили сайт в закладки?
        Да
        Не


        Top 10 за месяц (Фильмы)