.
Авторизация | Регистрация
Хочешь лучшие торренты? Добавь свой email!
Добавить
» » Черепашки-ниндзя 2 / Teenage Mutant Ninja Turtles: Out of the Shadows (2016) HDRip | iTunes скачать торрент бесплатно




    Черепашки-ниндзя 2 / Teenage Mutant Ninja Turtles: Out of the Shadows (2016) HDRip | iTunes скачать торрент бесплатно

    Опубликовал: Админ | Дата: 10-09-2016, 05:01 | Просмотров: 66



    Черепашки-ниндзя 2 / Teenage Mutant Ninja Turtles: Out of the Shadows
    Снималось в: США
    Создали в: Paramount Pictures, Nickelodeon Movies, Platinum Dunes, Gama Entertainment Partners
    Создали в: 2016
    Категория жанра: фантастика, фэнтези, боевик, комедия, приключения
    Время просмотра: 01: 52: 07
    Главный режиссер: Дэйв Грин
    Авторы сценария: Джош Аппелбаум, Андре Немец, Питер Лэрд

    Актеры
    Меган Фокс, Стивен Амелл, Алан Ричсон, Лора Линни, Уилл Арнетт, Ноэль Фишер, Стефен Фаррелли, Алессандра Амброзио
    Описание: Долгое время черепашки-ниндзя скрывались от людей в лабиринтах городской канализации. На протяжении нескольких лет учитель Сплинтер обучал их боевым искусствам и прививал им чувство справедливости. В один прекрасный момент им пришлось подняться наверх, чтобы спасти Нью-Йорк от Шредера, предводителя Клана Футов, захватившего власть в Нью-Йорке. Вместе с отважным репортером Эйприл и ее оператором Верном, бесстрашные воины смогли одержать победу и очистить любимый город от преступности. Леонардо, Микеланджело, Рафаэль и Донателло нашли свое предназначение в этом мире и стали защитниками своего города. Они навели порядок в Нью-Йорке и с чистой совестью могли отправиться на покой, но однажды им вновь пришлось столкнуться с могущественным врагом, угрожающим их городу…

    Перевод текста: Профессиональный (полное дублирование) | iTunes
    Субтитры: нет
    Качество фильма: HDRip
    Тип видео: AVI
    Информация о видео кодек: XviD
    Информация о звуке кодек: АС3
    Информация о видео: 720x304 (2.35: 1), 23.976 fps, XviD ~1 394 kbps avg
    Информация о звуке: 48.0 kHz, AC3 Dolby Digital, 3/2 (L, C, R, l, r) + LFE ch, ~384 kbps
    Дата премьеры (мир): 30 мая 2016
    Дата премьеры (РФ): 2 июня 2016, Централ Партнершип
    Media Info
    General
    Полное имя : TMNT.2.2O16.D.HDRip.1.46Gb.avi
    Формат : AVI
    Формат/Информация : Audio Video Interleave
    Размер файла : 1, 46 Гбайт
    Продолжительность : 1 ч. 52 м.
    Общий поток : 1860 Кбит/сек
    Программа кодирования : VirtualDubMod 1.5.10.2 (build 2540/release)
    Библиотека кодирования : VirtualDubMod build 2540/release
    Видео
    Идентификатор : 0
    Формат : MPEG-4 Visual
    Профиль формата : Advanced Simple@L5
    Параметр BVOP формата : Да
    Параметр QPel формата : Нет
    Параметр GMC формата : Без точки перехода
    Параметр матрицы формата : Default (MPEG)
    Идентификатор кодека : XVID
    Идентификатор кодека/Подсказка : XviD
    Продолжительность : 1 ч. 52 м.
    Битрейт : 1394 Кбит/сек
    Ширина : 720 пикселей
    Высота : 304 пикселя
    Соотношение сторон : 2, 35: 1
    Частота кадров : 23, 976 (24000/1001) кадра/сек
    Цветовое пространство : YUV
    Субдискретизация насыщенности : 4: 2: 0
    Битовая глубина : 8 бит
    Тип развёртки : Прогрессивная
    Метод сжатия : С потерями
    Бит/(Пиксели*Кадры) : 0.266
    Размер потока : 1, 09 Гбайт (75%)
    Библиотека кодирования : XviD 1.2.1 (UTC 2008-12-04)
    Аудио
    Идентификатор : 1
    Формат : AC-3
    Формат/Информация : Audio Coding 3
    Расширение режима : CM (complete main)
    Параметр Endianness формата : Big
    Идентификатор кодека : 2000
    Продолжительность : 1 ч. 52 м.
    Вид битрейта : Постоянный
    Битрейт : 384 Кбит/сек
    Каналы : 6 каналов
    Расположение каналов : Front: L C R, Side: L R, LFE
    Частота : 48, 0 КГц
    Частота кадров : 31, 250 кадров/сек (1536 spf)
    Метод сжатия : С потерями
    Размер потока : 308 Мбайт (21%)
    Выравнивание : Разделение по промежуткам

    Скриншоты

    Залил: Zha-4k-e

    Онлайн видео Черепашки-ниндзя 2


    Размер скачиваемого торрента: 1.46 GB (1564233728 Bytes)

    Черепашки-ниндзя 2/Teenage Mutant Ninja Turtles: Out of the Shadows (2016) HDRip | iTunes
    загрузка...
    Рейтинг →
     (голосов: 1, оценка 4/5, голосовать можно 1 раз )

    Другие торренты по теме:

  • Черепашки-ниндзя / Teenage Mutant Ninja Turtles (1990) НDRip от Scarabey | P
  • Черепашки-ниндзя / Teenage Mutant Ninja Turtles / TMNT (2012-2013) WEB-DLRip
  • Черепашки Ниндзя / Teenage Mutant Ninja Turtles (2012) WEB-DLRip | Nickelodeon | iPhone скачать через торрент бесплатно
  • Черепашки-ниндзя / Teenage Mutant Ninja Turtles (2012-2014) WEB-DLRip-AVC 720p
  • Черепашки-ниндзя / Teenage Mutant Ninja Turtles (2013-2014) WEB-DLRip | L
  • Черепашки-ниндзя / Teenage Mutant Ninja Turtles (2014) HD 720p | Тизер скачать через торрент бесплатно
  • Черепашки-ниндзя / Teenage Mutant Ninja Turtles (2013-2014) WEB-DLRip | L
  • Черепашки-ниндзя! / Teenage mutant ninja turtles (2014) Android скачать через торрент бесплатно


    • Комментарии (0):

      Информация

      Информация

        Посетители, находящиеся в группе Гости, не могут оставлять комментарии в данной новости.

        ↓ Меню



        ↓ Опрос

        А Вы добавили сайт в закладки?
        Да
        Не


        Top 10 за месяц (Фильмы)