.
Авторизация | Регистрация
Хочешь лучшие торренты? Добавь свой email!
Добавить
» » Родные поля (1944) SATRip от New-Team скачать торрент бесплатно




    Родные поля (1944) SATRip от New-Team скачать торрент бесплатно

    Опубликовал: Админ | Дата: 10-09-2016, 05:01 | Просмотров: 52



    Снималось в: СССР
    Создали в: Мосфильм
    Категория жанра: драма
    Создали в: 1944
    Время просмотра: 01: 29: 14
    Перевод текста: Не требуется
    Субтитры подготовлены: нет
    Оригинальная аудиодорожка: русский
    Главный режиссер: Борис Бабочкин, Анатолий Босулаев

    Актеры

    Борис Бабочкин, Василий Ванин, Николай Сергеев, Ольга Викландт, Нина Никитина, Анастасия Зуева, Елизавета Кузюрина, Нина Зорская, Владимир Балихин, М. Томкевич, Виктор Кольцов (Кутаков), Марина (Мария) Гаврилко, Мария Виноградова, Виктор Ключарев, Анатолий Елисеев, Мария Волкова, Владимир Колчин, Анна Кожевникова, Вера Орлова, Алексей Темерин, Зоя Толбузина (Земнухова), Владимир Уральский, Галина Фролова, Н. Карпов, Александр Лукьянов, А. Скворцова, Елена Тяпкина...
    Полный список актёров
    Описание:
    Сказ о трудовом и героическом подвиге русского народа в годы Великой Отечественной войны. Ноябрь 1941 года. Один за другим уходят мужчины, в деревне Быковка остаются лишь старики, женщины и дети. Председатель колхоза Иван Выборнов тоже рвется на фронт, но, подчиняясь партийной дисциплине, остается в деревне и продолжает умело руководить колхозом, мобилизуя односельчан на отправку хлеба для фронта и голодающих городов.
    Первая режиссерская работа известного актера Бориса Бабочкина и театрального художника Анатолия Босулаева.



    Источник: DVB
    Качество фильма видео: SATRip
    Тип видео видео: AVI
    Информация о видео: 704x512 (1, 375: 1), 25 fps, XviD ~ 1546 kbps avg, 0.172 bit/pixel
    Информация о звуке: 48 kHz, Dolby Digital AC3 2.0, 192 kbps
    Раздача от:
    MediaInfo

    Общее
    Полное имя : Rodnye.polya.1944.DVDRip_New-team_by_AVP_Studio.avi
    Формат : AVI
    Формат/Информация : Audio Video Interleave
    Размер файла : 1, 09 Гбайт
    Продолжительность : 1 ч. 29 м.
    Общий поток : 1748 Кбит/сек
    Программа кодирования : VirtualDubModRus 1.5.10.2 (build 2542/release)
    Библиотека кодирования : VirtualDubMod build 2542/release
    Видео
    Идентификатор : 0
    Формат : MPEG-4 Visual
    Профиль формата : Advanced Simple@L5
    Параметр BVOP формата : 1
    Параметр QPel формата : Нет
    Параметр GMC формата : Без точки перехода
    Параметр матрицы формата : Выборочная
    Идентификатор кодека : XVID
    Идентификатор кодека/Подсказка : XviD
    Продолжительность : 1 ч. 29 м.
    Битрейт : 1546 Кбит/сек
    Ширина : 704 пикселя
    Высота : 512 пикселей
    Соотношение сторон : 1, 375
    Частота кадров : 25, 000 кадров/сек
    Цветовое пространство : YUV
    Субдискретизация насыщенности : 4: 2: 0
    Битовая глубина : 8 бит
    Тип развёртки : Прогрессивная
    Метод сжатия : С потерями
    Бит/(Пиксели*Кадры) : 0.172
    Размер потока : 987 Мбайт (88%)
    Библиотека кодирования : XviD 73
    Аудио
    Идентификатор : 1
    Формат : AC-3
    Формат/Информация : Audio Coding 3
    Расширение режима : CM (complete main)
    Параметр Endianness формата : Big
    Идентификатор кодека : 2000
    Продолжительность : 1 ч. 29 м.
    Вид битрейта : Постоянный
    Битрейт : 192 Кбит/сек
    Каналы : 2 канала
    Расположение каналов : Front: L R
    Частота : 48, 0 КГц
    Битовая глубина : 16 бит
    Метод сжатия : С потерями
    Размер потока : 123 Мбайт (11%)
    Выравнивание : Разделение по промежуткам
    Продолжительность промежутка : 40 мс. (1, 00 видеокадр)
    Время предзагрузки промежутка : 500 мс

    Скриншоты



    Залил: AVPStudio

    Онлайн видео Родные поля (1944) SATRip от New


    Размер скачиваемого торрента: 1.09 GB (1169639424 Bytes)

    Родные поля (1944) SATRip от New-Team
    загрузка...
    Рейтинг →
     (голосов: 1, оценка 5/5, голосовать можно 1 раз )

    Другие торренты по теме:

  • Родные поля (1944) SATRip-AVC от New-Team


    • Комментарии (0):

      Информация

      Информация

        Посетители, находящиеся в группе Гости, не могут оставлять комментарии в данной новости.

        ↓ Меню



        ↓ Опрос

        А Вы добавили сайт в закладки?
        Да
        Не


        Top 10 за месяц (Фильмы)