.
Авторизация | Регистрация
Хочешь лучшие торренты? Добавь свой email!
Добавить




Шурочка (1982) DVB от AND03AND скачать торрент бесплатно

Опубликовал: Админ | Дата: 8-09-2016, 05:01 | Просмотров: 54



Детально о кино
Русское название: Шурочка
Создали в: 1982
Категория жанра: драма, исторический, экранизация
Главный режиссер: Иосиф Хейфиц

Актеры
Елена Финогеева, Андрей Николаев, Людмила Гурченко, Константин Григорьев, Станислав Садальский, Николай Скоробогатов, Валентин Смирнитский, Николай Ферапонтов, Иван Дмитриев, Юрий Медведев, Р. Илюткин

Сюжет фильма

Экранизация повести Александра Куприна Поединок.
На фоне пошлых полковых дам появляется образ Шурочки Николаевой, наделенной умом, остроумием, женским обаянием и изяществом. Она для Ромашова как луч света в темном царстве...
Доп. информация:
Сценарист: Иосиф Хейфиц
Оператор: Дмитрий Долинин
Композитор: Олег Каравайчук
Художник: Владимир Светозаров
Создали в: Ленфильм
Премьера: 22 августа 1983
Запись потока *.tsс наземного цифрового телеканала Беларусь 3.

Благодарность: за помощь с недостающим материалом Bartimeyse .Большое спасибо!
Снималось в: СССР
Киностудия: Ленфильм
Время просмотра: 01: 32: 29
Перевод текста: не требует
Файл
Кодек для видео: AVC (H264)
Качество фильма: DVB
Информация о видео: MPEG4 Video (H264) 720(785)x576 (49: 36) 25fps, 2 267 Kbps
Информация о звуке: MPEG Audio 48000Hz stereo 256kbps
Семпл
MediaInfo

General
ID : 1 (0x1)
Complete name : D: Новая земля 2Художественные фильмыШурочка (1982)Шурочка (1982).ts
Format : MPEG-TS
File size : 1.72 GiB
Duration : 1h 32mn
Overall bit rate mode : Variable
Overall bit rate : 2 657 Kbps
Video
ID : 513 (0x201)
Menu ID : 1 (0x1)
Format : AVC
Format/Info : Advanced Video Codec
Format profile : Main@L3.0
Format settings, CABAC : Yes
Format settings, ReFrames : 4 frames
Format settings, GOP : M=4, N=24
Codec ID : 27
Duration : 1h 32mn
Bit rate : 2 267 Kbps
Width : 720 pixels
Height : 576 pixels
Display aspect ratio : 4: 3
Frame rate : 25.000 fps
Standard : PAL
Color space : YUV
Chroma subsampling : 4: 2: 0
Bit depth : 8 bits
Scan type : MBAFF
Scan order : Top Field First
Bits/(Pixel*Frame) : 0.219
Stream size : 1.46 GiB (85%)
Color primaries : BT.601 PAL
Transfer characteristics : BT.470 System B, BT.470 System G
Matrix coefficients : BT.601
Color range : Limited
Audio
ID : 514 (0x202)
Menu ID : 1 (0x1)
Format : MPEG Audio
Format version : Version 1
Format profile : Layer 2
Codec ID : 3
Duration : 1h 32mn
Bit rate mode : Constant
Bit rate : 256 Kbps
Channel(s) : 2 channels
Sampling rate : 48.0 KHz
Compression mode : Lossy
Stream size : 169 MiB (10%)
Language : English

Скриншоты

Залил: AND03AND

Онлайн видео Другая реальность


Размер скачиваемого торрента: 1.72 GB (1842909292 Bytes)

Шурочка (1982) DVB от AND03AND
загрузка...
Рейтинг →
 (голосов: 1, оценка 4/5, голосовать можно 1 раз )

Другие торренты по теме:

  • Шурочка (2013) WEBRip


    • Комментарии (0):

      Информация

      Информация

        Посетители, находящиеся в группе Гости, не могут оставлять комментарии в данной новости.

        ↓ Меню



        ↓ Опрос

        А Вы добавили сайт в закладки?
        Да
        Не


        Top 10 за месяц (Фильмы)