.
Авторизация | Регистрация
Хочешь лучшие торренты? Добавь свой email!
Добавить
» » Джентльмены удачи (1971) HDRip 720p от ImperiaFilm | КПК скачать торрент бесплатно




    Джентльмены удачи (1971) HDRip 720p от ImperiaFilm | КПК скачать торрент бесплатно

    Опубликовал: Админ | Дата: 8-09-2016, 05:01 | Просмотров: 75



    Детально о кино
    Русское название: Джентльмены удачи
    Создали в: 1971
    Категория жанра: Александр Серый
    Главный режиссер: Драма, Комедия, Криминал, Детектив

    Актеры
    Евгений Леонов, Георгий Вицин, Раднэр Муратов, Савелий Крамаров, Наталья Фатеева, Эраст Гарин, Николай Олялин, Анатолий Папанов, Павел Шпрингфельд, Любовь Соколова...

    Сюжет фильма

    Заведующему детсадом Трошкину фатально не повезло: он оказался как две капли воды похож на бандита по кличке Доцент, похитившего уникальный шлем Александра Македонского.Милиция внедряет добряка Трошкина в воровскую среду - и ему ничего не остается, кроме как старательно изображать своего двойника-злодея, путая всех окружающих. Со временем он настолько блестяще входит в роль, что сам начинает порой приходить в ужас. Между тем, жизни его угрожает смертельная опасность...

    Снималось в: СССР
    Киностудия: Мосфильм. Творческое объединение Время
    Время просмотра: 01: 26: 43
    Перевод текста: Не требуется
    Файл
    Кодек для видео: h264
    Качество фильма: HDRip 720p| КПК
    Информация о видео: MPEG4 Video (H264) 944x720 (4: 3), 23.976fps, 2000kbps, 0.123 Bits/Pixel
    Информация о звуке: aac lc, 44100 Hz, 2ch, 125 kb/s
    Субтитры: Отсутствуют
    Семпл
    MI
    General
    Complete name : D: ТоррентыРип от ШкиперДжентельмены удачиDzhentlmeny.Udachi.1971.HDRip.720p.by shkiper.mp4
    Format : MPEG-4
    Format profile : Base Media
    Codec ID : isom
    File size : 1.29 GiB
    Duration : 1h 26mn
    Overall bit rate mode : Variable
    Overall bit rate : 2 128 Kbps
    Encoded date : UTC 2016-09-05 10: 35: 54
    Tagged date : UTC 2016-09-05 10: 35: 54
    Video
    ID : 1
    Format : AVC
    Format/Info : Advanced Video Codec
    Format profile : Baseline@L3
    Format settings, CABAC : No
    Format settings, ReFrames : 1 frame
    Codec ID : avc1
    Codec ID/Info : Advanced Video Coding
    Duration : 1h 26mn
    Bit rate : 2 000 Kbps
    Maximum bit rate : 4 612 Kbps
    Width : 944 pixels
    Height : 720 pixels
    Display aspect ratio : 4: 3
    Frame rate mode : Constant
    Frame rate : 23.976 fps
    Color space : YUV
    Chroma subsampling : 4: 2: 0
    Bit depth : 8 bits
    Scan type : Progressive
    Bits/(Pixel*Frame) : 0.123
    Stream size : 1.21 GiB (94%)
    Title : Imported with GPAC 0.4.6-DEV (internal rev. 5)
    Writing library : x264 core 67 r1165M 6841c5e
    Encoding settings : cabac=0/ref=1/deblock=1: 0: 0/analyse=0x1: 0/me=hex/subme=6/psy_rd=1.0: 0.0/mixed_ref=0/me_range=16/chroma_me=1/trellis=0/8x8dct=0/cqm=0/deadzone=21, 11/chroma_qp_offset=-2/threads=3/nr=0/decimate=1/mbaff=0/bframes=0/keyint=250/keyint_min=25/scenecut=40/rc=2pass/bitrate=2000/ratetol=1.0/qcomp=0.60/qpmin=10/qpmax=51/qpstep=4/cplxblur=20.0/qblur=0.5/vbv_maxrate=1500/vbv_bufsize=2000/ip_ratio=1.40/aq=1: 1.00
    Encoded date : UTC 2016-09-05 10: 35: 54
    Tagged date : UTC 2016-09-05 10: 38: 07
    Audio
    ID : 2
    Format : AAC
    Format/Info : Advanced Audio Codec
    Format profile : LC
    Codec ID : 40
    Duration : 1h 26mn
    Bit rate mode : Variable
    Bit rate : 126 Kbps
    Maximum bit rate : 184 Kbps
    Channel(s) : 2 channels
    Channel positions : Front: L R
    Sampling rate : 44.1 KHz
    Compression mode : Lossy
    Stream size : 77.9 MiB (6%)
    Title : Imported with GPAC 0.4.6-DEV (internal rev. 5)
    Encoded date : UTC 2016-09-05 10: 37: 54
    Tagged date : UTC 2016-09-05 10: 38: 07
    Скриншоты

    Релиз подготовил:
    Залил: surikmas

    Онлайн видео Джентльмены удачи (1971) HDRip 720p от ImperiaFilm


    Размер скачиваемого торрента: 1.29 GB (1384108680 Bytes)

    Джентльмены удачи (1971) HDRip 720p от ImperiaFilm | КПК
    загрузка...
    Рейтинг →
     (голосов: 1, оценка 5/5, голосовать можно 1 раз )

    Другие торренты по теме:

  • Джентльмены удачи / 1971 / РУ / BDRip
  • Джентльмены удачи. 40 лет спустя (2012) SATRip
  • Джентльмены удачи скачать через торрент бесплатно
  • Джентльмены удачи / 1971 / РУ / BDRip (AVC)
  • Джентльмены удачи / 1971 / РУ / DVDRip


    • Комментарии (0):

      Информация

      Информация

        Посетители, находящиеся в группе Гости, не могут оставлять комментарии в данной новости.

        ↓ Меню



        ↓ Опрос

        А Вы добавили сайт в закладки?
        Да
        Не


        Top 10 за месяц (Фильмы)