.
Авторизация | Регистрация
Хочешь лучшие торренты? Добавь свой email!
Добавить
» » Полдарк / Poldark (2016) HDTV 720р | NEON Studio скачать торрент бесплатно




    Полдарк / Poldark (2016) HDTV 720р | NEON Studio скачать торрент бесплатно

    Опубликовал: Админ | Дата: 8-09-2016, 05:01 | Просмотров: 183



    Русское название: Полдарк
    Русское название в мировом прокате: Poldark
    Создали в: 2016
    Категория жанра: драма, мелодрама
    Главный режиссер: Эдвард Базалгетт, Уильям МакГрегор

    Актеры

    Эйдан Тёрнер, Элинор Томлинсон, Хейда Рид, Кайл Соллер, Руби Бенталл, Бети Эдни, Джек Фартинг, Фил Дэвис, Уоррен Кларк др.
    Описание сериала:
    Росс Полдарк возвращается домой с войны, надеясь на спокойную и счастливую жизнь в кругу семьи, и обнаруживает, что отец умер, а домом управляют слуги-пьяницы. Невеста Росса, Элизабет, аристократка и красавица, думая, что он погиб в Америке во время Войны за независимость, вышла замуж за его двоюродного брата. Медные рудники, принадлежавшие семье Полдарк, стали вожделенным объектом для врагов. Дуэли, контрабанда, планируемые убийства - всё выходит на поверхность, как только Росс берётся за то, чтобы вернуть своё утраченное состояние. В жестокой борьбе он также обретает истинную любовь в неуправляемой, решительной и энергичной Демелзе. Эта волнующая сага рассказывает о глубоких разногласиях британского общества в преддверии индустриализации и разыгрывается на фоне живописного горного Корнуэлла. По мотивам цикла исторически-авантюрных романов Уинстона Грэхема.
    Снималось в: Великобритания
    Время просмотра: ~01: 00: 00
    Перевод текста: Любительский (двухголосый) NEON Studio
    Субтитры: Отсутствуют

    Файл
    Тип видео: MKV
    Качество фильма: HDTV (720p)
    Информация о видео: MPEG-4 AVC, ~ 3000 Кбит/с, 1280x720
    Информация о звуке: 48 kHz, AC3 Dolby Digital, 2/0 (L, R) ch, ~192 kbps
    Релиз группа:

    MediaInfo
    Формат : Matroska
    Версия формата : Version 2
    Размер файла : 1, 10 Гбайт
    Продолжительность : 58 м.
    Общий поток : 2692 Кбит/сек
    Дата кодирования : UTC 2016-09-06 02: 27: 33
    Программа кодирования : mkvmerge v4.9.1 (;Ich will;) сборка от Jul 11 2011 23: 53: 15
    Библиотека кодирования : libebml v1.2.1 + libmatroska v1.1.1
    Видео
    Идентификатор : 1
    Формат : AVC
    Формат/Информация : Advanced Video Codec
    Профиль формата : Main@L5.1
    Параметр CABAC формата : Да
    Параметр ReFrames формата : 1 кадр
    Режим смешивания : Header stripping
    Идентификатор кодека : V_MPEG4/ISO/AVC
    Продолжительность : 58 м.
    Битрейт : 2447 Кбит/сек
    Ширина : 1280 пикселей
    Высота : 720 пикселей
    Соотношение сторон : 16: 9
    Режим частоты кадров : Постоянный
    Частота кадров : 25, 000 кадров/сек
    Цветовое пространство : YUV
    Субдискретизация насыщенности : 4: 2: 0
    Битовая глубина : 8 бит
    Тип развёртки : Прогрессивная
    Бит/(Пиксели*Кадры) : 0.106
    Размер потока : 1, 00 Гбайт (91%)
    Default : Да
    Forced : Нет
    Аудио
    Идентификатор : 2
    Формат : AC-3
    Формат/Информация : Audio Coding 3
    Расширение режима : CM (complete main)
    Параметр Endianness формата : Big
    Режим смешивания : Header stripping
    Идентификатор кодека : A_AC3
    Продолжительность : 58 м.
    Вид битрейта : Постоянный
    Битрейт : 192 Кбит/сек
    Каналы : 2 канала
    Расположение каналов : Front: L R
    Частота : 48, 0 КГц
    Частота кадров : 31, 250 кадров/сек (1536 spf)
    Метод сжатия : С потерями
    Размер потока : 80, 7 Мбайт (7%)
    Default : Да
    Forced : Нет
    Внимание! Раздача ведётся путём добавления новых серий
    Внимание! Раздача ведётся путём добавления новых серий; при каждом добавлении создаётся новый торрент. Чтобы начать докачку новой серии, пользователям необходимо сделать следующее:
    (1) остановить скачивание,
    (2) удалить старый торрент у себя из клиента (старые серии удалять не надо),
    (3) скачать новый торрент и запустить его у себя в клиенте вместо старого, при этом указать клиенту путь в старую папку куда и должно происходить скачивание новых серий.
    Ваш клиент при этом должен произвести хеширование (проверку) старой папки (если не производит сам - помогите ему сделать это), и будет докачивать только те серии которых у вас ещё нет. Старые серии при этом не удаляются, а продолжают раздаваться!
    Eсли вы уже удалили старые серии, то предотвратить повторную закачку старых серий можно, отжав галочку в соответсвующих местах при запуске нового торрента. По возможности, желательно не удалять старые серии как можно дольше чтобы релизёр не столько продолжал раздавать старые серии, а смог сконцентрироваться на новых.
    Скриншоты

    Залил: SPARTA111

    Онлайн видео Полдарк


    Размер скачиваемого торрента: 1.10 GB (1186068239 Bytes)

    Полдарк/Poldark (2016) HDTV 720р | NEON Studio
    загрузка...
    Рейтинг →
     (голосов: 1, оценка 4/5, голосовать можно 1 раз )

    Другие торренты по теме:

  • Полдарк / Poldark (2015) WEB-DLRip | BaibaKo
  • Полдарк / Poldark (2015) WEB-DL 1080p | Baibako
  • Полдарк / Poldark (2015) WEB-DLRip-AVC | Baibako
  • Полдарк / Poldark (2015) WEB-DLRip | BaibaKo
  • Полдарк / Poldark (2015) WEB-DL 720p | BaibaKo
  • Полдарк / Poldark (2015) HDTVRip | BaibaKo
  • Полдарк / Poldark (1975) DVDRip от Исторический Роман | L
  • Полдарк / Poldark (1975) DVDRip-AVC от Исторический Роман | L


    • Комментарии (0):

      Информация

      Информация

        Посетители, находящиеся в группе Гости, не могут оставлять комментарии в данной новости.

        ↓ Меню



        ↓ Опрос

        А Вы добавили сайт в закладки?
        Да
        Не


        Top 10 за месяц (Фильмы)