.
Авторизация | Регистрация
Хочешь лучшие торренты? Добавь свой email!
Добавить
» » Мгновения жизни / The Life Before Her Eyes (2007) BDRip 720p | P скачать торрент бесплатно




    Мгновения жизни / The Life Before Her Eyes (2007) BDRip 720p | P скачать торрент бесплатно

    Опубликовал: Админ | Дата: 8-09-2016, 05:00 | Просмотров: 28



    Детально о кино
    Русское название: Мгновения жизни
    Русское название в мировом прокате: The Life Before Her Eyes
    Создали в: 2007
    Категория жанра: триллер, драма, детектив
    Главный режиссер: Вадим Перельман

    Актеры
    Ума Турман, Эван Рэйчел Вуд, Ева Амурри, Гэбриэлль Бреннан, Бретт Каллен, Оскар Айзек, Джек Гилпин, Мэгги Лэйси, Джон Магаро, Линн Коэн

    Сюжет фильма

    15 лет назад Диана выжила после массового убийства, произошедшего в американском колледже. Сегодня она типичная домохозяйка, взрослая замужняя женщина, воспитывающая восьмилетнюю дочь, но сомнения в устроенности своей жизни не проходят. В своих воспоминаниях Диана видит себя по-прежнему старшеклассницей, вместе с застенчивой подружкой Морин предающейся типичным девичьим фантазиями о парнях и светлом будущем. Но что-то не дает Диане покоя. Что-то, связанное с Морин и случившееся в день перестрелки.

    Снималось в: США
    Киностудия: 2929 Productions
    Время просмотра: 01: 29: 40
    Перевод текста: Профессиональный многоголосный, закадровый
    Файл
    Кодек для видео: H.264
    Качество фильма: BDRip 720p
    Информация о видео: MPEG-4/AVC, 1280x532 (2.40: 1), 23.976 fps ~ 5400 Kbps
    Информация о звуке:
    AC3, 48 KHz 6 ch ~ 448 Kb/s (русский)
    DTS, 48 KHz 6 ch, 1510 Kb/s (английский)
    Vorbis, 48 KHz 2 ch ~ 80 Kb/s (английский с режиссёрскими комментариями)
    Субтитры: Русские, английские, хорватские, датские, португальские, румынские, испанские
    MI:

    Общее
    Уникальный идентификатор : 194501751725087942848494327772881839030 (0x9253ACBEED4326DE9AD54DD3B43B63B6)
    Полное имя : Q: TorFMngnovenija.zhizni.2007.x264.BDRip.720p.mkv
    Формат : Matroska
    Версия формата : Version 2
    Размер файла : 4, 65 Гбайт
    Продолжительность : 1 ч. 29 м.
    Режим общего битрейта : Переменный
    Общий поток : 7429 Кбит/сек
    Название фильма : Life Before Her Eyes (2007) - Release for HDClub
    Дата кодирования : UTC 2009-07-19 15: 10: 42
    Программа кодирования : mkvmerge v2.9.0 (;Moanin;;) built on May 22 2009 17: 46: 31
    Библиотека кодирования : libebml v0.7.7 + libmatroska v0.8.1
    Видео
    Идентификатор : 1
    Формат : AVC
    Формат/Информация : Advanced Video Codec
    Профиль формата : High@L5.1
    Параметр CABAC формата : Да
    Параметр ReFrames формата : 6 кадров
    Параметр GOP формата : N=1
    Идентификатор кодека : V_MPEG4/ISO/AVC
    Продолжительность : 1 ч. 29 м.
    Битрейт : 5400 Кбит/сек
    Ширина : 1280 пикселей
    Высота : 532 пикселя
    Соотношение сторон : 2, 40: 1
    Частота кадров : 23, 976 кадра/сек
    Цветовое пространство : YUV
    Субдискретизация насыщенности : 4: 2: 0
    Битовая глубина : 8 бит
    Тип развёртки : Прогрессивная
    Бит/(Пиксели*Кадры) : 0.331
    Размер потока : 3, 28 Гбайт (71%)
    Заголовок : Release for HDClub
    Библиотека кодирования : x264 core 61 r953M 3727f2b
    Настройки программы : cabac=1/ref=6/deblock=1: -3: -3/analyse=0x3: 0x133/me=umh/subme=7/psy_rd=1.0: 1.0/brdo=1/mixed_ref=1/me_range=24/chroma_me=1/trellis=2/8x8dct=1/cqm=0/deadzone=21, 11/chroma_qp_offset=-4/threads=6/nr=0/decimate=1/mbaff=0/bframes=16/b_pyramid=1/b_adapt=1/b_bias=0/direct=1/wpredb=1/bime=1/keyint=250/keyint_min=25/scenecut=40(pre)/rc=2pass/bitrate=5400/ratetol=1.0/qcomp=1.00/qpmin=10/qpmax=51/qpstep=4/cplxblur=20.0/qblur=0.5/ip_ratio=1.40/pb_ratio=1.30/aq=2: 1.00
    Язык : English
    Default : Да
    Forced : Нет
    Аудио #1
    Идентификатор : 2
    Формат : AC-3
    Формат/Информация : Audio Coding 3
    Расширение режима : CM (complete main)
    Идентификатор кодека : A_AC3
    Продолжительность : 1 ч. 29 м.
    Вид битрейта : Постоянный
    Битрейт : 448 Кбит/сек
    Каналы : 6 каналов
    Расположение каналов : Front: L C R, Side: L R, LFE
    Частота : 48, 0 КГц
    Битовая глубина : 16 бит
    Метод сжатия : С потерями
    Задержка видео : 847 мс.
    Размер потока : 287 Мбайт (6%)
    Заголовок : AC3 5.1 @ 448 Многоголосый закадровый
    Язык : Russian
    Default : Да
    Forced : Нет
    Аудио #2
    Идентификатор : 3
    Формат : DTS
    Формат/Информация : Digital Theater Systems
    Идентификатор кодека : A_DTS
    Продолжительность : 1 ч. 29 м.
    Вид битрейта : Постоянный
    Битрейт : 1510 Кбит/сек
    Каналы : 6 каналов
    Расположение каналов : Front: L C R, Side: L R, LFE
    Частота : 48, 0 КГц
    Битовая глубина : 24 бит
    Метод сжатия : С потерями
    Размер потока : 968 Мбайт (20%)
    Заголовок : DTS 5.1 @ 1536
    Язык : English
    Default : Нет
    Forced : Нет
    Аудио #3
    Идентификатор : 4
    Формат : Vorbis
    Параметр Floor формата : 1
    Идентификатор кодека : A_VORBIS
    Продолжительность : 1 ч. 29 м.
    Вид битрейта : Переменный
    Битрейт : 80, 0 Кбит/сек
    Каналы : 2 канала
    Частота : 48, 0 КГц
    Метод сжатия : С потерями
    Размер потока : 51, 3 Мбайт (1%)
    Заголовок : Vorbis 2.0 Commentary
    Библиотека кодирования : libVorbis 1.2 (UTC 2007-06-22)
    Язык : English
    Default : Нет
    Forced : Нет
    Программа кодирования : Made with BeSweet v1.5b31
    Encoded_Application/Url : http://DSPguru.doom9.org
    Текст #1
    Идентификатор : 5
    Формат : UTF-8
    Идентификатор кодека : S_TEXT/UTF8
    Идентификатор кодека/Информация : UTF-8 Plain Text
    Язык : Russian
    Default : Нет
    Forced : Нет
    Текст #2
    Идентификатор : 6
    Формат : UTF-8
    Идентификатор кодека : S_TEXT/UTF8
    Идентификатор кодека/Информация : UTF-8 Plain Text
    Язык : English
    Default : Да
    Forced : Нет
    Текст #3
    Идентификатор : 7
    Формат : UTF-8
    Идентификатор кодека : S_TEXT/UTF8
    Идентификатор кодека/Информация : UTF-8 Plain Text
    Язык : scr
    Default : Нет
    Forced : Нет
    Текст #4
    Идентификатор : 8
    Формат : UTF-8
    Идентификатор кодека : S_TEXT/UTF8
    Идентификатор кодека/Информация : UTF-8 Plain Text
    Язык : Dutch
    Default : Нет
    Forced : Нет
    Текст #5
    Идентификатор : 9
    Формат : UTF-8
    Идентификатор кодека : S_TEXT/UTF8
    Идентификатор кодека/Информация : UTF-8 Plain Text
    Язык : Portuguese
    Default : Нет
    Forced : Нет
    Текст #6
    Идентификатор : 10
    Формат : UTF-8
    Идентификатор кодека : S_TEXT/UTF8
    Идентификатор кодека/Информация : UTF-8 Plain Text
    Язык : Romanian
    Default : Нет
    Forced : Нет
    Текст #7
    Идентификатор : 11
    Формат : UTF-8
    Идентификатор кодека : S_TEXT/UTF8
    Идентификатор кодека/Информация : UTF-8 Plain Text
    Язык : Spanish
    Default : Нет
    Forced : Нет

    Семпл
    Скриншоты


    Онлайн видео Мгновения жизни


    Размер скачиваемого торрента: 4.65 GB (4995698035 Bytes)

    Мгновения жизни/The Life Before Her Eyes (2007) BDRip 720p | P
    загрузка...
    Рейтинг →
     (голосов: 1, оценка 4/5, голосовать можно 1 раз )

    Другие торренты по теме:

  • Мгновения жизни / The Life Before Her Eyes (2007) BDRip 1080p
  • Вся жизнь перед глазами / Мгновения жизни / Life Before Her Eyes, The (2007) HDRip от Scarabey | Р скачать через торрент бесплатно
  • Мгновения жизни / The Life Before Her Eyes (2007) BDRemux 1080p | Р


    • Комментарии (0):

      Информация

      Информация

        Посетители, находящиеся в группе Гости, не могут оставлять комментарии в данной новости.

        ↓ Меню



        ↓ Опрос

        А Вы добавили сайт в закладки?
        Да
        Не


        Top 10 за месяц (Фильмы)