.
Авторизация | Регистрация
Хочешь лучшие торренты? Добавь свой email!
Добавить
» » Финансовый монстр / Money Monster (2016) BDRemux 1080p от ExKinoRay | Лицензия скачать торрент бесплатно




    Финансовый монстр / Money Monster (2016) BDRemux 1080p от ExKinoRay | Лицензия скачать торрент бесплатно

    Опубликовал: Админ | Дата: 7-09-2016, 05:00 | Просмотров: 67



    Детально о кино
    Русское название: Финансовый монстр
    Русское название в мировом прокате: Money Monster
    Создали в: 2016
    Категория жанра: Триллер, драма, криминал
    Главный режиссер: Джоди Фостер

    Актеры
    Джордж Клуни, Джулия Робертс, Джек О`Коннелл, Доминик Уэст, Катрина Балф, Джанкарло Эспозито, Кристофер Денэм, Ленни Венито, Кристофер Бауэр, Дэннис Буцикарис
    О фильме:
    Во время трансляции рейтингового реалити-шоу Финансовый монстр в студию врывается неизвестный и берет ведущего в заложники. Несмотря на чрезвычайную ситуацию, программа не прерывается – ведь шоу должно продолжаться! Постепенно то, что начиналось как мрачная драма, превращается в самый успешный и скандальный выпуск реалити-шоу за всю его историю.

    Снималось в: США
    Киностудия: Allegiance Theater, LStar Capital, Smoke House, TriStar Pictures
    Время просмотра: 01: 38: 07
    Перевод текста: Дублированный | Лицензия Blu-Ray CEE
    Файл
    Кодек для видео: x264
    Качество фильма: BDRemux 1080p
    Информация о видео: 1920x1080, 24.9 Mbit/s, 23.976 fps
    Информация о звуке:
    Информация о звуке #01: 48 kHz, AC3, 5.1, 640 Kbps | Дублированный, Лицензия |
    Информация о звуке #02: 48 kHz, DTS-HD MA, 5.1, 2105 kbps | Оригинал |
    Субтитры: Русские, английские

    MI
    General
    Unique ID : 236054762928618138536509368564340342171 (0xB1967E5F731A14B183DF6D6156E1BD9B)
    Complete name : G: VideoMoney.Monster.2016.BDREMUX.1080p.ExKinoRay.mkv
    Format : Matroska
    Format version : Version 4/Version 2
    File size : 19.0 GiB
    Duration : 1 h 38 min
    Overall bit rate mode : Variable
    Overall bit rate : 27.6 Mb/s
    Movie name : ***селезень***
    Encoded date : UTC 2016-09-06 20: 43: 32
    Writing application : mkvmerge v8.3.0 (;Over the Horizon;) 64bit
    Writing library : libebml v1.3.1 + libmatroska v1.4.2
    Video
    ID : 1
    Format : AVC
    Format/Info : Advanced Video Codec
    Format profile : High@L4.1
    Format settings, CABAC : Yes
    Format settings, ReFrames : 2 frames
    Format settings, GOP : M=1, N=10
    Codec ID : V_MPEG4/ISO/AVC
    Duration : 1 h 38 min
    Bit rate mode : Variable
    Bit rate : 24.9 Mb/s
    Width : 1 920 pixels
    Height : 1 080 pixels
    Display aspect ratio : 16: 9
    Frame rate mode : Constant
    Frame rate : 23.976 (24000/1001) FPS
    Color space : YUV
    Chroma subsampling : 4: 2: 0
    Bit depth : 8 bits
    Scan type : Progressive
    Bits/(Pixel*Frame) : 0.500
    Stream size : 17.1 GiB (90%)
    Title : ***селезень***
    Language : English
    Default : Yes
    Forced : No
    Audio #1
    ID : 2
    Format : AC-3
    Format/Info : Audio Coding 3
    Mode extension : CM (complete main)
    Format settings, Endianness : Big
    Codec ID : A_AC3
    Duration : 1 h 38 min
    Bit rate mode : Constant
    Bit rate : 640 kb/s
    Channel(s) : 6 channels
    Channel positions : Front: L C R, Side: L R, LFE
    Sampling rate : 48.0 kHz
    Frame rate : 31.250 FPS (1536 spf)
    Compression mode : Lossy
    Stream size : 452 MiB (2%)
    Title : DUB Blu-Ray CEE
    Language : Russian
    Default : Yes
    Forced : No
    Audio #2
    ID : 3
    Format : DTS
    Format/Info : Digital Theater Systems
    Format profile : MA/Core
    Mode : 16
    Format settings, Endianness : Big
    Codec ID : A_DTS
    Duration : 1 h 38 min
    Bit rate mode : Variable/Constant
    Bit rate : 2 105 kb/s/1 509 kb/s
    Channel(s) : 6 channels
    Channel positions : Front: L C R, Side: L R, LFE
    Sampling rate : 48.0 kHz
    Frame rate : 93.750 FPS (512 spf)
    Bit depth : 16 bits
    Compression mode : Lossless/Lossy
    Stream size : 1.45 GiB (8%)
    Title : Original
    Language : English
    Default : No
    Forced : No
    Text #1
    ID : 4
    Format : UTF-8
    Codec ID : S_TEXT/UTF8
    Codec ID/Info : UTF-8 Plain Text
    Duration : 1 h 3 min
    Bit rate : 0 b/s
    Count of elements : 10
    Stream size : 395 Bytes (0%)
    Title : Forced
    Language : Russian
    Default : Yes
    Forced : No
    Text #2
    ID : 5
    Format : UTF-8
    Codec ID : S_TEXT/UTF8
    Codec ID/Info : UTF-8 Plain Text
    Duration : 1 h 31 min
    Bit rate : 152 b/s
    Count of elements : 1878
    Stream size : 102 KiB (0%)
    Title : Full
    Language : Russian
    Default : No
    Forced : No
    Text #3
    ID : 6
    Format : UTF-8
    Codec ID : S_TEXT/UTF8
    Codec ID/Info : UTF-8 Plain Text
    Duration : 1 h 34 min
    Bit rate : 113 b/s
    Count of elements : 1939
    Stream size : 78.2 KiB (0%)
    Title : Full
    Language : English
    Default : No
    Forced : No
    Text #4
    ID : 7
    Format : UTF-8
    Codec ID : S_TEXT/UTF8
    Codec ID/Info : UTF-8 Plain Text
    Duration : 1 h 34 min
    Bit rate : 120 b/s
    Count of elements : 2031
    Stream size : 83.4 KiB (0%)
    Title : SDH
    Language : English
    Default : No
    Forced : No
    Menu
    00: 00: 00.000 : en: 00: 00: 00.000
    00: 07: 14.225 : en: 00: 07: 14.225
    00: 12: 38.800 : en: 00: 12: 38.800
    00: 20: 08.457 : en: 00: 20: 08.457
    00: 24: 32.179 : en: 00: 24: 32.179
    00: 31: 37.854 : en: 00: 31: 37.854
    00: 39: 52.140 : en: 00: 39: 52.140
    00: 45: 29.101 : en: 00: 45: 29.101
    00: 51: 37.511 : en: 00: 51: 37.511
    00: 55: 39.628 : en: 00: 55: 39.628
    00: 58: 43.019 : en: 00: 58: 43.019
    01: 06: 42.207 : en: 01: 06: 42.207
    01: 10: 27.682 : en: 01: 10: 27.682
    01: 16: 06.228 : en: 01: 16: 06.228
    01: 19: 55.165 : en: 01: 19: 55.165
    01: 29: 35.036 : en: 01: 29: 35.036
    Скриншоты

    Релиз подготовил: Автор релиза:

    Онлайн видео Финансовый монстр


    Размер скачиваемого торрента: 19.03 GB (20435333128 Bytes)

    Финансовый монстр/Money Monster (2016) BDRemux 1080p от ExKinoRay | Лицензия
    загрузка...
    Рейтинг →
     (голосов: 1, оценка 3/5, голосовать можно 1 раз )

    Другие торренты по теме:

  • Финансовый монстр / Money Monster (2016)
  • Финансовый монстр / Money Monster (2016) WEBRip | Звук с TS
  • Финансовый монстр / Money Monster (2016) BDRip 720p | Line
  • Финансовый монстр / Money Monster (2016) BDRip 1080p | Звук с TS
  • Финансовый монстр / Money Monster (2016) HDRip | Line
  • Финансовый монстр / Money Monster (2016) HDRip | iTunes
  • Финансовый монстр / Money Monster (2016) BDRip от ExKinoRay | iTunes
  • Финансовый монстр / Money Monster (2016) HDRip от MegaPeer | iTunes


    • Комментарии (0):

      Информация

      Информация

        Посетители, находящиеся в группе Гости, не могут оставлять комментарии в данной новости.

        ↓ Меню



        ↓ Опрос

        А Вы добавили сайт в закладки?
        Да
        Не


        Top 10 за месяц (Фильмы)