.
Авторизация | Регистрация
Хочешь лучшие торренты? Добавь свой email!
Добавить
» » Чёрный пёс / Black Dog (1998) BDRip 720p | P, P2, A скачать торрент бесплатно




    Чёрный пёс / Black Dog (1998) BDRip 720p | P, P2, A скачать торрент бесплатно

    Опубликовал: Админ | Дата: 7-09-2016, 05:00 | Просмотров: 100



    Детально о кино
    Русское название: Чёрный пёс
    Русское название в мировом прокате: Black Dog
    Создали в: 1998
    Категория жанра: боевик, триллер, драма, криминал
    Главный режиссер: Кевин Хукс

    Актеры
    Патрик Суэйзи, Мит Лоаф, Рэнди Трэвис, Гэбриел Коссес, Брайан Винсент, Грэм Беккел, Бренда Стронг, Расти Де Уиз, Сирил О’Райлли, Эрин Бродерик

    Сюжет фильма

    Водитель-дальнобойщик Джек Круз только что вышел из тюрьмы и сейчас находится под полицейским надзором. Однако, обстоятельства вынуждают его ради благополучия жены и ребенка, согласиться на перевозку левого груза. Без лишних вопросов он отправляется в путь. Очень скоро становится ясно, насколько опасным будет этот рейс. Но, преследуемый бандитами и ФБР, Джек твердо намерен доставить груз по назначению.

    Снималось в: США, Великобритания, Франция, Германия, Япония
    Киностудия: Prelude Pictures, Saltire Entertainment, Toho-Towa, Universal Pictures
    Время просмотра: 01: 28: 19
    Перевод текста: Профессиональный (многоголосый, закадровый) PTP + Профессиональный (многоголосый, закадровый) ОРТ + Профессиональный (двухголосый, закадровый) + Авторский (одноголосый, закадровый) А.Гаврилов + Авторский (одноголосый, закадровый) Ю.Живов
    Файл
    Тип видео: Matroska
    Информация о видео: 1280x544 at 23.976 fps, x264@L4.1, ~6300 kbps avg
    Информация о звуке#1: Russian: 48 kHz, AC3 Dolby Digital, 2/0 (L, R) ch, ~192 kbps avg|Многоголосый закадровый, РТР|
    Информация о звуке#2: Russian: 48 kHz, AC3 Dolby Digital, 2/0 (L, R) ch, ~192 kbps avg|Многоголосый закадровый, ОРТ|
    Информация о звуке#3: Russian: 48 kHz, AC3 Dolby Digital, 3/2 (L, C, R, l, r) + LFE ch, ~448 kbps avg|Двухголосый закадровый|
    Информация о звуке#4: Russian: 48 kHz, AC3 Dolby Digital, 3/2 (L, C, R, l, r) + LFE ch, ~640 kbps avg|Авторский, А.Гаврилов|
    Информация о звуке#5: Russian: 48 kHz, AC3 Dolby Digital, 3/2 (L, C, R, l, r) + LFE ch, ~640 kbps avg|Авторский, Ю.Живов|
    Информация о звуке#6: English: 48 kHz, AC3 Dolby Digital, 3/2 (L, C, R, l, r) + LFE ch, ~640 kbps avg
    Субтитры подготовлены: Russian, English (SDH)
    ***Сохранены оригинальные главы как на Blu-ray.
    ***Релиз - Kasparas.
    Знаете ли вы, что...
    Согласно Вику Армстронгу, команда каскадеров, включающая второго помощника режиссера и координатора трюков Гарри Хаймса, была уволена продюсерами. После этого они позвали Вика Армстронга чтобы снять погони грузовика и завершить трюковые сцены. Часть команды каскадеров осталась на съемочной площадке и была повторно нанят Армстронгом. Этим объясняется два координатора трюков. Помощник координатора трюков и второй помощник режиссера указаны в фильме.
    Штаб-квартира ФБР, показанные в фильме на самом деле небоскреб Georgia-Pacific в центре города Атланта, штат Джорджия.
    Кевин Сорбо был первоначально подписан на главную роль, но выбыл из фильма из-за медицинских проблем.
    6 января 1998 года, 3 члена по спец эффектам получили ранения при подготовке взрыв газа в центре города Уилмингтон, Северная Каролина. Два члена были госпитализированы с серьезными травмами, а третий получил легкое ранение. Неправильные меры безопасности, которые пошли против стандартов, разрешенных для преждевременного взрыва. Батарея используемая для запуска взрыва хранилась в грузовике моторного отсека, а не под открытым небом. Аккумулятор не был отключен, когда кабель коснулся электрические контакты произошла детонация. Black Dog Productions был оштрафован на 16800 долларов за счет государства. Эти сцены, которые были сняты в центре города Уилмингтон не были использованы в финальной версии.
    MI
    Общее
    Уникальный идентификатор : 188919038162915287882149482714711063374 (0x8E207BB756C11477847BE6D4BD51FB4E)
    Полное имя : Black.Dog.1998.720p.BluRay.5xRus.Eng.mkv
    Формат : Matroska
    Версия формата : Version 4/Version 2
    Размер файла : 5, 70 Гбайт
    Продолжительность : 1 ч. 28 м.
    Общий поток : 9232 Кбит/сек
    Название фильма : Черный пес/Black Dog (1998)
    Дата кодирования : UTC 2016-09-06 11: 16: 57
    Программа кодирования : mkvmerge v9.4.0 (;Knurl;) 64bit
    Библиотека кодирования : libebml v1.3.4 + libmatroska v1.4.5
    Attachements : xlog.txt/cover.jpg
    Видео
    Идентификатор : 1
    Формат : AVC
    Формат/Информация : Advanced Video Codec
    Профиль формата : High@L4.1
    Параметр CABAC формата : Да
    Параметр ReFrames формата : 12 кадров
    Идентификатор кодека : V_MPEG4/ISO/AVC
    Продолжительность : 1 ч. 28 м.
    Битрейт : 6296 Кбит/сек
    Ширина : 1280 пикселей
    Высота : 544 пикселя
    Соотношение сторон : 2, 35: 1
    Режим частоты кадров : Постоянный
    Частота кадров : 23, 976 кадра/сек
    Цветовое пространство : YUV
    Субдискретизация насыщенности : 4: 2: 0
    Битовая глубина : 8 бит
    Тип развёртки : Прогрессивная
    Бит/(Пиксели*Кадры) : 0.377
    Размер потока : 3, 88 Гбайт (68%)
    Заголовок : Черный пес/Black Dog (1998) BDRip 720p by Kasparas
    Библиотека кодирования : x264 core 148 r2705kMod 3f5ed56
    Настройки программы : cabac=1/ref=12/deblock=1: -3: -3/analyse=0x3: 0x133/me=umh/subme=10/psy=1/fade_compensate=0.00/psy_rd=1.00: 0.00/mixed_ref=1/me_range=32/chroma_me=1/trellis=2/8x8dct=1/cqm=0/deadzone=21, 11/fast_pskip=0/chroma_qp_offset=-2/threads=6/lookahead_threads=1/sliced_threads=0/nr=0/decimate=0/interlaced=0/bluray_compat=0/constrained_intra=0/fgo=0/bframes=10/b_pyramid=2/b_adapt=2/b_bias=0/direct=3/weightb=1/open_gop=0/weightp=2/keyint=250/keyint_min=23/scenecut=40/intra_refresh=0/rc_lookahead=60/rc=crf/mbtree=0/crf=17.0000/qcomp=0.60/qpmin=0/qpmax=69/qpstep=4/vbv_maxrate=62500/vbv_bufsize=78125/crf_max=0.0/nal_hrd=none/filler=0/ip_ratio=1.40/pb_ratio=1.30/aq=3: 0.85
    Язык : English
    Default : Да
    Forced : Нет
    Аудио #1
    Идентификатор : 2
    Формат : AC-3
    Формат/Информация : Audio Coding 3
    Расширение режима : CM (complete main)
    Параметр Endianness формата : Big
    Идентификатор кодека : A_AC3
    Продолжительность : 1 ч. 28 м.
    Вид битрейта : Постоянный
    Битрейт : 192 Кбит/сек
    Каналы : 2 канала
    Расположение каналов : Front: L R
    Частота : 48, 0 КГц
    Метод сжатия : С потерями
    Размер потока : 121 Мбайт (2%)
    Заголовок : MVO, PTP
    Язык : Russian
    Default : Да
    Forced : Нет
    Аудио #2
    Идентификатор : 3
    Формат : AC-3
    Формат/Информация : Audio Coding 3
    Расширение режима : CM (complete main)
    Параметр Endianness формата : Big
    Идентификатор кодека : A_AC3
    Продолжительность : 1 ч. 28 м.
    Вид битрейта : Постоянный
    Битрейт : 192 Кбит/сек
    Каналы : 2 канала
    Расположение каналов : Front: L R
    Частота : 48, 0 КГц
    Метод сжатия : С потерями
    Размер потока : 121 Мбайт (2%)
    Заголовок : MVO, OPT
    Язык : Russian
    Default : Нет
    Forced : Нет
    Аудио #3
    Идентификатор : 4
    Формат : AC-3
    Формат/Информация : Audio Coding 3
    Расширение режима : CM (complete main)
    Параметр Endianness формата : Big
    Идентификатор кодека : A_AC3
    Продолжительность : 1 ч. 28 м.
    Вид битрейта : Постоянный
    Битрейт : 448 Кбит/сек
    Каналы : 6 каналов
    Расположение каналов : Front: L C R, Side: L R, LFE
    Частота : 48, 0 КГц
    Метод сжатия : С потерями
    Размер потока : 283 Мбайт (5%)
    Заголовок : DVO
    Язык : Russian
    Default : Нет
    Forced : Нет
    Аудио #4
    Идентификатор : 5
    Формат : AC-3
    Формат/Информация : Audio Coding 3
    Расширение режима : CM (complete main)
    Параметр Endianness формата : Big
    Идентификатор кодека : A_AC3
    Продолжительность : 1 ч. 28 м.
    Вид битрейта : Постоянный
    Битрейт : 640 Кбит/сек
    Каналы : 6 каналов
    Расположение каналов : Front: L C R, Side: L R, LFE
    Частота : 48, 0 КГц
    Метод сжатия : С потерями
    Размер потока : 404 Мбайт (7%)
    Заголовок : AVO, А. Гаврилов
    Язык : Russian
    Default : Нет
    Forced : Нет
    Аудио #5
    Идентификатор : 6
    Формат : AC-3
    Формат/Информация : Audio Coding 3
    Расширение режима : CM (complete main)
    Параметр Endianness формата : Big
    Идентификатор кодека : A_AC3
    Продолжительность : 1 ч. 28 м.
    Вид битрейта : Постоянный
    Битрейт : 640 Кбит/сек
    Каналы : 6 каналов
    Расположение каналов : Front: L C R, Side: L R, LFE
    Частота : 48, 0 КГц
    Метод сжатия : С потерями
    Размер потока : 404 Мбайт (7%)
    Заголовок : AVO, Ю. Живов
    Язык : Russian
    Default : Нет
    Forced : Нет
    Аудио #6
    Идентификатор : 7
    Формат : AC-3
    Формат/Информация : Audio Coding 3
    Расширение режима : CM (complete main)
    Параметр Endianness формата : Big
    Идентификатор кодека : A_AC3
    Продолжительность : 1 ч. 28 м.
    Вид битрейта : Постоянный
    Битрейт : 640 Кбит/сек
    Каналы : 6 каналов
    Расположение каналов : Front: L C R, Side: L R, LFE
    Частота : 48, 0 КГц
    Метод сжатия : С потерями
    Размер потока : 404 Мбайт (7%)
    Язык : English
    Default : Нет
    Forced : Нет
    Текст #1
    Идентификатор : 8
    Формат : UTF-8
    Идентификатор кодека : S_TEXT/UTF8
    Идентификатор кодека/Информация : UTF-8 Plain Text
    Язык : Russian
    Default : Нет
    Forced : Нет
    Текст #2
    Идентификатор : 9
    Формат : UTF-8
    Идентификатор кодека : S_TEXT/UTF8
    Идентификатор кодека/Информация : UTF-8 Plain Text
    Заголовок : SDH
    Язык : English
    Default : Нет
    Forced : Нет
    Меню
    00: 00: 00.000 : en: Chapter 1
    00: 05: 04.303 : en: Chapter 2
    00: 09: 33.823 : en: Chapter 3
    00: 12: 38.507 : en: Chapter 4
    00: 13: 42.988 : en: Chapter 5
    00: 19: 01.723 : en: Chapter 6
    00: 21: 15.773 : en: Chapter 7
    00: 24: 21.417 : en: Chapter 8
    00: 27: 27.729 : en: Chapter 9
    00: 28: 40.844 : en: Chapter 10
    00: 32: 27.904 : en: Chapter 11
    00: 35: 11.692 : en: Chapter 12
    00: 41: 24.773 : en: Chapter 13
    00: 45: 15.254 : en: Chapter 14
    00: 49: 46.191 : en: Chapter 15
    00: 52: 11.795 : en: Chapter 16
    00: 55: 12.767 : en: Chapter 17
    01: 00: 26.581 : en: Chapter 18
    01: 03: 42.193 : en: Chapter 19
    01: 06: 01.457 : en: Chapter 20
    01: 09: 18.529 : en: Chapter 21
    01: 11: 24.488 : en: Chapter 22
    01: 15: 03.749 : en: Chapter 23
    01: 17: 12.627 : en: Chapter 24
    01: 19: 18.503 : en: Chapter 25
    01: 23: 00.892 : en: Chapter 26
    Скриншоты


    Онлайн видео Чёрный пёс


    Размер скачиваемого торрента: 5.70 GB (6115589688 Bytes)

    Чёрный пёс/Black Dog (1998) BDRip 720p | P, P2, A
    загрузка...
    Рейтинг →
     (голосов: 1, оценка 4/5, голосовать можно 1 раз )

    Другие торренты по теме:

  • Чёрный клевер / Black Clover (2017) HDTVRip 720p | L1
  • Чёрный лебедь / Black Swan (2010) DVD-9 | D
  • Чёрный лебедь / Black Swan (2010) BDRip 1080p
  • Чёрный котёл / The Black Cauldron (1985) HDRip | D, A | UNRATED
  • Чёрный рыцарь / Black Knight (2001) BDRip от ivandubskoj | P, A скачать через торрент бесплатно
  • Чёрный лебедь / Black Swan (2010) BDRip от MediaClub | КПК
  • Чёрный ящик / Black Box (2014) HDTVRip | L2 L1 скачать через торрент бесплатно
  • Чёрный ящик / Black Box (2014) HDTVRip | L2 L1


    • Комментарии (0):

      Информация

      Информация

        Посетители, находящиеся в группе Гости, не могут оставлять комментарии в данной новости.

        ↓ Меню



        ↓ Опрос

        А Вы добавили сайт в закладки?
        Да
        Не


        Top 10 за месяц (Фильмы)