.
Авторизация | Регистрация
Хочешь лучшие торренты? Добавь свой email!
Добавить
» » Солнечное копьё / Soneczna wcznia (2001) DVDRip | L1 скачать торрент бесплатно




    Солнечное копьё / Soneczna wcznia (2001) DVDRip | L1 скачать торрент бесплатно

    Опубликовал: Админ | Дата: 6-09-2016, 05:01 | Просмотров: 56



    Детально о кино
    Русское название: Солнечное копьё
    Русское название в мировом прокате: S?oneczna w??cznia/Die Sonnenlanze
    Создали в: 2001
    Категория жанра: фантастика, семейный, комедия
    Главный режиссер: Ежи Лукашевич

    Актеры
    Марцин Коберский, Себастьян Грек, Анна Новак, Кжиштоф Янчак, Мацей Лагодзински, Марта Боровска, Гржегорц Руда, Гудрун Окрас, Ежи Гудейко, Рейнер Хейз

    Сюжет фильма

    Космическая энергия, спрятанная в наконечнике Солнечного Копья, найденного в Андах, круто меняет жизнь 12-летнего Макса. Он теперь в совершенстве владеет телекинезом и стал вундеркиндом. Непросто складываются отношения в школе, где ему и его дикой подружке Матильде противостоит завистливый Артур с компанией. К тому же за Копьем охотится пришелец Зак…

    Создали в: Польша, Германия/Max-Film, mdF
    Время просмотра: 13 x ~00: 26: 00
    Перевод текста: sasha20072007
    Тип перевода: любительское (одноголосое закадровое) Семен Ващенко
    Файл
    Качество фильма: DVDRip
    Тип видео: AVI
    Информация о видео: DivX 5, 704x438 (16: 10), 25.000 fps, ~1800 kbps, 0.233 bit/pixel
    Информация о звуке: русский, AC3 2.0, 48 kHz, 192 kbps
    Список серий
    1. Tajemnicze odkrycie - Таинственная находка
    2. Artur - Артур
    3. Magiczna moc - Магическая сила
    4. Fenomen - Феномен
    5. Tajemniczy slad - Таиственный след
    6. Dom Orchidei - Дом Орхидеи
    7. Niezwykly Gosc - Загадочный гость
    8. Obcy na planecie Terra - Чужой на планете Терра
    9. Matylda - Матильда
    10. Trop - Cлед
    11. Ostatnie starcie - Последняя схватка
    12. Powr?t do Bramy S?o?ca - Возвращение к Вратам Солнца
    13. Najwa?niejszy mecz - Самый важный матч
    MediaInfo
    Формат : AVI
    Формат/Информация : Audio Video Interleave
    Размер файла : 383 Мбайт
    Продолжительность : 26 м.
    Общий поток : 1999 Кбит/сек
    Программа кодирования : VirtualDubModRus 1.5.10.2 (build 2542/release)
    Библиотека кодирования : VirtualDubMod build 2542/release
    Видео
    Идентификатор : 0
    Формат : MPEG-4 Visual
    Параметр BVOP формата : 1
    Параметр QPel формата : Нет
    Параметр GMC формата : Без точки перехода
    Параметр матрицы формата : Default (H.263)
    Режим смешивания : Сжатый битовый поток
    Идентификатор кодека : DX50
    Идентификатор кодека/Подсказка : DivX 5
    Продолжительность : 26 м.
    Битрейт : 1797 Кбит/сек
    Ширина : 704 пикселя
    Высота : 438 пикселей
    Соотношение сторон : 16: 10
    Частота кадров : 25, 000 кадров/сек
    Цветовое пространство : YUV
    Субдискретизация насыщенности : 4: 2: 0
    Битовая глубина : 8 бит
    Тип развёртки : Прогрессивная
    Метод сжатия : С потерями
    Бит/(Пиксели*Кадры) : 0.233
    Размер потока : 344 Мбайт (90%)
    Библиотека кодирования : DivX 6.0.0 (UTC 2005-06-15)
    Аудио
    Идентификатор : 1
    Формат : AC-3
    Формат/Информация : Audio Coding 3
    Расширение режима : CM (complete main)
    Параметр Endianness формата : Big
    Идентификатор кодека : 2000
    Продолжительность : 26 м.
    Вид битрейта : Постоянный
    Битрейт : 192 Кбит/сек
    Каналы : 2 канала
    Расположение каналов : Front: L R
    Частота : 48, 0 КГц
    Метод сжатия : С потерями
    Размер потока : 36, 8 Мбайт (10%)
    Выравнивание : Разделение по промежуткам
    Продолжительность промежутка : 40 мс. (1, 00 видеокадр)
    Время предзагрузки промежутка : 500 мс.
    Скриншоты

    Релиз подготовил:
    Залил: makkaronni

    Онлайн видео Солнечное копьё


    Размер скачиваемого торрента: 4.86 GB (5221163008 Bytes)

    Солнечное копьё/Soneczna wcznia (2001) DVDRip | L1
    загрузка...
    Рейтинг →
     (голосов: 1, оценка 4/5, голосовать можно 1 раз )

    Другие торренты по теме:

  • Мираж - Солнечное Лето. Лучшие Песни 1987-1995 (2014) MP3 скачать через торрент бесплатно


    • Комментарии (0):

      Информация

      Информация

        Посетители, находящиеся в группе Гости, не могут оставлять комментарии в данной новости.

        ↓ Меню



        ↓ Опрос

        А Вы добавили сайт в закладки?
        Да
        Не


        Top 10 за месяц (Фильмы)