.
Авторизация | Регистрация
Хочешь лучшие торренты? Добавь свой email!
Добавить
» » Джейсон Борн / Jason Bourne (2016) WEBRip | Звук с TS скачать торрент бесплатно




    Джейсон Борн / Jason Bourne (2016) WEBRip | Звук с TS скачать торрент бесплатно

    Опубликовал: Админ | Дата: 3-09-2016, 14:07 | Просмотров: 50



    Детально о кино
    Русское название: Джейсон Борн
    Русское название в мировом прокате: Jason Bourne
    Создали в: 2016
    Категория жанра: Боевик, Триллер
    Главный режиссер: Пол Гринграсс

    Актеры
    Алисия Викандер, Мэтт Дэймон, Джулия Стайлз, Томми Ли Джонс, Венсан Кассель, Риз Ахмед, Ато Эссонда, Нив Гачев, Билл Кэмп, Александр Купер

    Сюжет фильма

    Мир на грани катастрофы, а значит пришло время ему вернуться. Неаполь, Мюнхен, Нью-Йорк — его имя знают повсюду. Элитный суперагент, лучший из лучших, даже в Лас-Вегасе игра пойдет по его правилам. Он — Джейсон Борн.

    Снималось в: США
    Время просмотра: 02: 02: 12
    Перевод текста: Профессиональный (полное дублирование) | Звук с TS
    Файл
    Кодек для видео: XviD
    Качество фильма: WEBRip
    Информация о видео: MPEG4, XviD, 720x304 (2.35: 1), 23.970 fps, 2009 Kbps (0.306 bit/pixel)
    Информация о звуке: AC-3, 48.0 KHz, 2 ch, 384 Kbps, CBR
    Субтитры: Корейские (вшитые)
    Семпл
    MediaInfo
    Общее
    Полное имя : JeSon.BourNe.2O16.Dt.HDTVRip.21OOMB.avi
    Формат : AVI
    Формат/Информация : Audio Video Interleave
    Профиль формата : OpenDML
    Размер файла : 2, 06 Гбайт
    Продолжительность : 2 ч. 2 м.
    Общий поток : 2408 Кбит/сек
    Программа кодирования : VirtualDubMod 1.5.10.2 (build 2540/release)
    Библиотека кодирования : VirtualDubMod build 2540/release
    Видео
    Идентификатор : 0
    Формат : MPEG-4 Visual
    Профиль формата : Advanced Simple@L5
    Параметр BVOP формата : 2
    Параметр QPel формата : Нет
    Параметр GMC формата : Без точки перехода
    Параметр матрицы формата : Выборочная
    Идентификатор кодека : XVID
    Идентификатор кодека/Подсказка : XviD
    Продолжительность : 2 ч. 2 м.
    Битрейт : 2009 Кбит/сек
    Ширина : 720 пикселей
    Высота : 304 пикселя
    Соотношение сторон : 2, 35: 1
    Частота кадров : 29, 970 кадров/сек
    Цветовое пространство : YUV
    Субдискретизация насыщенности : 4: 2: 0
    Битовая глубина : 8 бит
    Тип развёртки : Прогрессивная
    Метод сжатия : С потерями
    Бит/(Пиксели*Кадры) : 0.306
    Размер потока : 1, 71 Гбайт (83%)
    Библиотека кодирования : XviD 1.2.1 (UTC 2008-12-04)
    Аудио
    Идентификатор : 1
    Формат : AC-3
    Формат/Информация : Audio Coding 3
    Расширение режима : CM (complete main)
    Параметр Endianness формата : Big
    Идентификатор кодека : 2000
    Продолжительность : 2 ч. 2 м.
    Вид битрейта : Постоянный
    Битрейт : 384 Кбит/сек
    Каналы : 2 канала
    Расположение каналов : Front: L R
    Частота : 48, 0 КГц
    Битовая глубина : 16 бит
    Метод сжатия : С потерями
    Размер потока : 336 Мбайт (16%)
    Выравнивание : Разделение по промежуткам
    Продолжительность промежутка : 33 мс. (1, 00 видеокадр)
    Время предзагрузки промежутка : 500 мс.
    Скриншоты



    Залил: KomputerniySpec

    Онлайн видео Джейсон Борн


    Размер скачиваемого торрента: 2.06 GB (2207465472 Bytes)

    Джейсон Борн/Jason Bourne (2016) WEBRip | Звук с TS
    загрузка...
    Рейтинг →
     (голосов: 1, оценка 5/5, голосовать можно 1 раз )

    Другие торренты по теме:

  • Джейсон Борн: Квадрология / Jason Bourne: Quadrilogy (2002-2012) BDRip-AVC от potroks | D
  • Джейсон Борн: Квадрология / Jason Bourne: Quadrilogy (2002-2012) HDRip-AVC | iPhone скачать через торрент бесплатно
  • Джейсон Борн: Квадрология / Jason Bourne: Quadrilogy (2002-2012) BDRip-AVC от ExKinoRay | D, A
  • Джейсон Борн: Квадрология / Jason Bourne: Quadrilogy (2002-2012) BDRip | D скачать через торрент бесплатно
  • Джейсон Борн / Jason Bourne (2002-2012) BDRip 720p | 60 fps | Квадрология скачать через торрент бесплатно
  • Джейсон Борн / Jason Bourne (2016) CAMRip | L
  • OST - Джейсон Борн / Jason Bourne (2016) MP3 от NNNB
  • Джейсон Борн / Jason Bourne (2016) HDTV 1080р | L


    • Комментарии (0):

      Информация

      Информация

        Посетители, находящиеся в группе Гости, не могут оставлять комментарии в данной новости.

        ↓ Меню



        ↓ Опрос

        А Вы добавили сайт в закладки?
        Да
        Не


        Top 10 за месяц (Фильмы)